<?xml version="1.0" standalone="no"?>
<!DOCTYPE svg PUBLIC "-//W3C//DTD SVG 1.1//EN" "http://www.w3.org/Graphics/SVG/1.1/DTD/svg11.dtd">
<svg xmlns="http://www.w3.org/2000/svg">
<metadata>Copyright (C) 2019 by original authors @ fontello.com</metadata>
<defs>
<font id="video" horiz-adv-x="1000" >
<font-face font-family="video" font-weight="400" font-stretch="normal" units-per-em="1000" ascent="850" descent="-150" />
<missing-glyph horiz-adv-x="1000" />
<glyph glyph-name="ccr" unicode="&#xe800;" d="M695 141c-1 0-3 0-4 0-2 0-3 0-5 0-2 0-3 0-3-2-5-8-33-47-38-56 0-2 0-3 0-5 3-6 30-44 35-50 1-1 3-5 3-6 0-2 1-2 3-2 2 0 2 0 3 0v0h3 3v0c2 0 2 0 3 0 2 0 2 0 4 2 1 1 3 5 3 6 3 6 29 44 34 50 0 2 0 3 0 5-5 8-33 47-37 56-4 2-5 2-7 2z m-50 512c2 2 3 6 3 11 0 6-1 9-3 11-1 2-4 3-14 3h-22v-30h22c10 2 13 4 14 5z m-501 155v-916h711v916h-711z m336-199c4-6 14-9 28-9 11 0 22 2 33 5l7 1v-33l-4-1c-6-2-13-3-19-3-9 0-16 0-22 0-11 0-22 1-30 4-9 4-15 8-21 13s-11 14-14 23c-4 10-4 19-4 32 0 12 2 22 4 31 3 9 6 17 12 23 6 7 13 11 22 13 8 3 19 5 30 5 9 0 17 0 25-2 7-2 12-3 15-3l5-2-5-29-6 1c-5 2-9 3-14 3-5 0-11 2-16 2-12 0-22-3-28-10-5-6-8-15-8-31s3-26 10-33z m253-136v-56h-339v56h339z m-39 99h-41l-28 47h-16v-47h-36v112l-10 5 3 20h67c17 0 31-3 39-11 8-7 12-18 12-34 0-12-3-22-7-28-5-5-10-9-16-11l33-53z m-300-266v57h339v-57h-339z m167-56v-56h-167v56h167z m-209 359c4-6 14-9 28-9 11 0 22 2 33 5l7 1v-33l-4-1c-7-2-13-3-19-3-8 0-14 0-22 0-11 0-22 1-30 4-9 4-15 8-22 13s-10 14-14 23c-3 10-3 19-3 32 0 12 2 22 3 31 4 9 7 17 13 23 6 7 12 11 22 13 9 1 20 3 31 3 9 0 17 0 25-2 8-1 13-3 16-3l6-1-5-30-6 2c-5 1-9 3-14 3-5 0-11 1-16 1-12 0-22-3-28-9-5-6-8-16-8-31s2-25 7-32z m-14-136v-56h-57v56h57z m0-110v-57h-57v57h57z m0-113v-56h-57v56h57z m446-172c-6-14-61-91-68-103-3-5-5-8-8-13-2-1-3-3-5-3-1 0-3 0-5 0v0h-6-6v0c-2 0-3 0-5 0-3 0-4 2-4 3-4 5-5 8-8 13-8 12-63 89-69 103-2 3-2 5 0 8 9 17 66 98 77 114 1 3 3 5 6 5 3 0 8 0 11 0 3 0 8 0 11 0 3 0 4-2 6-5 9-17 67-97 77-114-4-3-4-6-4-8z" horiz-adv-x="1000" />

<glyph glyph-name="dashboard" unicode="&#xe801;" d="M272 656h56v-278h-56v278z m-249-567h336v-111h-111v-56h502v56h-111v111h336v136h-952v-136z m138 400h56v-111h-56v111z m-138 289v-528h952v528h-952z m472-456h-390v222h111v167h167v-111h111v-278z m177 0h-56v56h56v-56z m0 111h-56v56h56v-56z m0 111h-56v56h56v-56z m223-222h-167v56h167v-56z m0 111h-167v56h167v-56z m0 111h-167v56h167v-56z m-511 0h57v-167h-57v167z" horiz-adv-x="1000" />

<glyph glyph-name="ko-rombo-entero" unicode="&#xe802;" d="M841 408c-8 0-16-2-22-3-6-3-11-7-16-10s-6-11-8-17-3-17-3-26c0-11 2-19 3-27 2-6 5-14 8-17 5-5 8-8 16-10 6-3 14-3 22-3 17 0 29 5 37 14 6 10 11 24 11 44s-5 36-11 44c-8 6-19 11-37 11z m-77 175c-128 0-233-105-233-233s105-233 233-233 234 105 234 233-104 233-234 233z m-48-313l-52 66-12-14v-53h-32v137c0 2 0 3 0 5 0 0-1 2-3 2l-8 3 4 14h39c1 0 3-2 3-3v-66l62 69h36l-65-75 68-88h-39v3z m201 43c-3-11-8-19-14-27-6-6-15-11-25-16-9-3-22-4-37-4-16 0-27 1-38 4-9 3-17 8-25 16-6 6-11 16-14 27s-5 23-5 37c0 16 2 28 5 38 3 10 8 18 14 26 6 6 16 11 25 16 10 3 22 4 38 4 15 0 26-1 37-4 10-3 17-8 25-16 6-6 11-16 14-26 3-11 5-24 5-38 0-16-2-28-5-37z m-486 121c14 8 27 14 38 22 20 16 19 32-5 42-25 13-53 16-81 16-14 0-14-16-28-20-17 36-36 70-52 106-19 39-48 61-92 69-70 11-139 17-209 17v-52c68 0 136-4 204-14 16-1 30-7 38-22 22-39 42-78 64-121-103 7-205 11-308 11 0-29 0-69 0-149 2 0 5 0 6 0 2 0 3-1 5-3 6-9 41-59 45-69 2-1 2-3 0-4-4-8-37-55-42-63 2-3 0-6-1-8 0-1-2-1-4-1-1 0-1 0-3 0v0h-4c0-69 0-93 0-113 89 0 178-3 268-9 13-2 16-5 16-17 0-36 2-36 37-36 41 0 82 0 122 0 19 0 28 7 27 26-3 63 5 124 9 185 3 46-1 93-9 140-5 28-24 47-41 67z m-65-282c-19 0-38 0-55 0-17 0-36 0-53 0-10 0-19 4-17 14 0 11 7 15 17 15 36 0 72 0 108 0 11 0 17-4 17-15 0-10-8-14-17-14z m4 75c-12 0-25 0-39 0-14 0-28 0-43 0-19 0-27 11-21 26 6 17 19 31 38 35 33 4 67 6 100 10 15 2 20-4 20-18-2-33-23-53-55-53z m-340 39c-3 4-19 28-22 34 0 0-2 2-2 2-1 0-1 0-3 0v-72h2v0c0 0 1 0 1 0 0 0 2 0 2 1 0 2 1 3 1 3 2 4 19 27 21 30 0 0 0 0 0 2z" horiz-adv-x="1000" />

<glyph glyph-name="ok-rombo-entero" unicode="&#xe803;" d="M236 583c-128 0-233-105-233-233s105-233 233-233 233 105 233 233-105 233-233 233z m-5-270c-3-11-8-19-14-25-6-7-15-11-25-16-9-3-22-5-36-5s-26 2-37 5-17 8-25 16c-6 6-11 15-14 25-2 9-5 21-5 37 0 14 2 28 5 38 3 10 8 18 14 25 6 6 15 10 25 15 9 3 22 5 36 5s26-2 36-5c9-3 18-8 25-15s11-16 14-25c3-11 4-24 4-38 2-16 0-28-3-37z m132-44l-52 67-13-14v-53h-32v137c0 2 0 3 0 3s-2 2-3 2l-8 3 3 14h39c1 0 3-1 3-3v-67l63 69h35l-67-74 69-86h-37v2z m-207 139c-8 0-15-2-22-3-6-3-11-7-15-10-5-4-6-11-8-18-2-7-3-18-3-27s1-19 3-27c2-6 5-14 8-18s8-8 15-10c7-3 14-3 22-3 17 0 30 5 36 14 6 10 11 24 11 46 0 20-5 34-11 45-8 6-20 11-36 11z m636 212c69 10 136 14 205 14v52c-70 0-139-6-209-17-43-6-74-28-93-69-17-36-34-70-51-106-13 4-13 20-28 20-28 0-57-3-82-16-21-10-23-26-4-42 11-8 25-14 37-22-19-20-36-39-40-67-8-47-13-94-10-140 5-61 13-124 10-185-2-19 7-28 26-26 41 0 81 0 122 0 36 0 36 0 38 36 0 12 3 15 15 17 89 6 178 9 269 9 0 20 0 42 0 113h-5v0c-1 0-1 0-3 0-1 0-3 0-3 1-2 3-3 5-5 8-4 8-37 55-42 63-1 1-1 3 0 4 5 11 41 60 45 69 2 2 2 3 5 3 2 0 5 0 6 0 0 81 0 120 0 149-101 0-204-4-307-11 23 43 42 82 64 121 9 15 23 19 40 22z m-34-453c0-11-8-14-17-14-18 0-36 0-53 0-19 0-38 0-55 0-10 0-16 3-17 14 0 11 6 16 17 16 36 0 72 0 108 0 9-2 17-6 17-16z m-64 121c19-4 31-16 37-35 7-17-3-26-20-26-14 0-28 0-44 0-12 0-25 0-39 0-31 0-53 20-55 53 0 14 5 20 21 18 33-4 65-6 100-10z m300 12c-2 0-2 0-2-2-3-4-20-28-22-34 0-1 0-1 0-3 2-5 19-27 21-30 0-1 1-3 1-3 0 0 0-1 2-1 0 0 1 0 1 0v0h2v71c-2 2-3 2-3 2z" horiz-adv-x="1000" />

<glyph glyph-name="telefonofijo" unicode="&#xe804;" d="M950 5c-300 0-598 0-900 0 0 6 0 11 0 15 0 80 0 158 0 238 0 19 5 36 20 47 32 26 64 53 99 75 48 31 100 61 150 90 8 5 11 8 11 18 1 21 3 45 4 70-17-2-34-5-51-6 3-14 6-29 8-43 6-32-7-51-39-57-60-11-118-24-177-35-23-4-44 8-50 30-12 45-11 89 2 134 7 28 25 47 54 55 69 19 138 30 208 37 120 15 242 18 364 7 88-8 174-21 258-42 36-10 56-32 64-66 9-42 11-83 0-124-6-21-25-34-47-29-61 11-122 23-184 36-25 4-39 23-35 50 2 15 7 31 10 48-10 2-17 3-25 5-8 1-16 1-25 3 1-27 3-52 6-77 0-4 6-7 11-11 69-43 139-87 208-131 17-11 33-26 47-42 6-8 11-19 11-28 1-86 0-170 0-256-2-7-2-8-2-11z m-553 558c1-27 5-54 6-79 66 0 130 0 194 0 1 27 5 52 6 79-69 7-136 9-206 0z m248-190c-25 0-48 0-73 0 0-25 0-48 0-71 25 0 48 0 73 0 0 23 0 46 0 71z m-73-207c0-24 0-44 0-66 0-3 5-8 6-8 22 0 45 0 67 0 0 27 0 50 0 74-25 0-48 0-73 0z m-216 207c0-25 0-48 0-71 25 0 49 0 72 0 0 25 0 48 0 71-25 0-48 0-72 0z m108-71c25 0 49 0 72 0 0 25 0 48 0 71-25 0-48 0-72 0 0-25 0-48 0-71z m-37-210c0 25 0 49 0 74-25 0-49 0-72 0 0-25 0-49 0-74 25 0 48 0 72 0z m37 74c0-25 0-49 0-74 25 0 49 0 72 0 0 25 0 49 0 74-25 0-48 0-72 0z m181 103c-25 0-48 0-72 0 0-25 0-49 0-72 25 0 49 0 72 0 0 25 0 48 0 72z m-290-72c25 0 48 0 72 0 0 25 0 48 0 72-25 0-49 0-72 0 0-24 0-47 0-72z m109 0c25 0 49 0 72 0 0 25 0 48 0 72-25 0-48 0-72 0 0-24 0-47 0-72z" horiz-adv-x="1000" />

<glyph glyph-name="accesorios" unicode="&#xe805;" d="M1000 192h-389c-11 31-33 56-62 71-17 10-37 16-59 16-20 0-40-6-57-15-30-15-52-40-64-71h-1c-17 0-32 15-32 33v20c0 1 1 1 1 2v0c0 0 0 1-1 2v97c0 18 15 34 32 34h632v67h-263v132h181l82-87v96l-46 48c-6 7-14 10-23 10h-397c-8 0-17-3-22-10 0 0-209-216-210-217-18-18-29-44-29-73v-81h-96c-10 0-18 8-18 18v15c23 8 39 29 39 54 0 31-25 57-57 57s-57-26-57-57c0-25 16-46 39-54v-51c0-10 8-18 18-18h132v-4c0-54 40-98 91-101 11-59 63-104 126-104 63 0 115 45 126 104h384v67z m-453 388h126v-132h-253l127 132z m-57-494c-33 0-59 28-59 63 0 35 27 63 59 63 33 0 60-28 60-63s-27-63-60-63z" horiz-adv-x="1000" />

<glyph glyph-name="accion-guardar" unicode="&#xe806;" d="M914 672c-31 31-62 62-92 92-19 19-39 27-66 27-203 0-406 0-609 0-53 0-88-35-88-88 0-236 0-472 0-706 0-53 35-88 88-88 117 0 236 0 353 0s236 0 353 0c53 0 88 36 88 88 0 203 0 406 0 609 0 25-8 47-27 66z m-561 8c0 20 8 28 27 28 79 0 159 0 239 0 20 0 28-8 28-28 0-30 0-60 0-89 0-24-8-30-30-32-39 0-78 0-117 0-39 0-80 0-119 0-20 0-28 8-28 29 0 31 0 60 0 92z m474-688c-110 0-219 0-327 0-108 0-214 0-322 0-28 0-34 6-34 33 0 216 0 431 0 647 0 28 6 33 34 33 22 0 44 0 64 0 21 0 27-8 27-28 0-46 0-93 0-138 0-39 26-64 64-66 111 0 222 0 333 0 39 0 64 27 64 66 0 47 0 94 0 142 0 8 4 21 9 22 8 2 20 0 27-6 28-27 54-53 81-81 5-5 8-14 8-22 0-192 0-385 0-577 1-17-7-25-28-25z" horiz-adv-x="1000" />

<glyph glyph-name="borrar" unicode="&#xe807;" d="M241-87c2-26 23-47 49-47h455c26 0 47 21 48 47l33 686h-617l32-686z m379 515c0 11 9 20 20 20h32c11 0 19-9 19-20v-391c0-11-8-20-19-20h-32c-11 0-20 9-20 20v391z m-138 0c0 11 9 20 20 20h31c11 0 20-9 20-20v-391c0-11-9-20-20-20h-31c-11 0-20 9-20 20v391l0 0z m-139 0c0 11 9 20 20 20h32c11 0 20-9 20-20v-391c0-11-9-20-20-20h-32c-11 0-20 9-20 20v391z m502 295h-209v40c0 5-5 10-11 10h-220c-6 0-10-5-10-10v-40h-210c-17 0-30-14-30-31v-96h721v96c0 17-14 31-31 31z" horiz-adv-x="1000" />

<glyph glyph-name="aceptado" unicode="&#xe808;" d="M913 260c28-6 48-22 68-40 28 55 65 189-217 205 0 0 10 68 48 126 38 59 58 159-19 215-78 56-90 28-97-1-4-16-30-128-30-128s-176-182-206-235c0 0-22-32-60-32s-137 0-137 0-113-139-15-331c0 0 1-9 22-9 20 0 153 0 153 0s42-48 143-105c0 0 64-29 120-12 0 0 12-10 39-10 26 0 109-16 125 72-12 10-25 17-40 20-13 2-8 22 5 19 19-3 35-13 50-26 21 7 58 25 61 78-1 1-2 1-2 2-15 14-31 25-51 29-13 2-7 21 5 19 23-4 42-17 59-33 21 10 61 41 31 114 0 0 1 2 3 5-18 17-37 33-63 38-13 3-7 22 5 20z m-688 130h-175c-113-200 0-380 0-380h180c-139 190-5 380-5 380z" horiz-adv-x="1000" />

<glyph glyph-name="area-exteriores" unicode="&#xe809;" d="M400 825c2-2 3-3 5-5 31-17 43-43 36-72-8-29-32-46-66-46-66 0-131 0-197 0-9 0-17 0-28 0 0-235 0-466 0-700 231 0 464 0 700 0 0 36 0 71 0 107 0 21 0 41 0 61 0 33 17 55 47 64 26 8 53-4 70-31 2-3 5-6 6-9 0-92 0-183 0-275-17-33-43-44-81-44-264 2-529 0-794 0-51 0-73 22-73 73 0 265 0 530 0 794 0 38 9 64 44 81 111 2 222 2 331 2z m277-233c-47 0-89 0-133 0-42 0-72 28-74 67 0 39 30 69 72 69 100 0 200 0 302 0 44 0 72-30 72-73 0-92 0-183 0-275 0-42-28-72-68-74-40 0-68 30-70 74 0 37 0 73 0 117-9-8-15-14-20-19-120-119-239-236-360-355-20-18-42-29-70-21-26 7-44 25-50 51-6 28 5 49 25 67 78 77 158 153 236 232 45 46 91 92 138 140z" horiz-adv-x="1000" />

<glyph glyph-name="archivo" unicode="&#xe80a;" d="M762 163h-275c-21 0-38-17-38-38v-84c0-21 17-38 38-38h275c21 0 38 17 38 38v84c0 21-17 38-38 38z m-10-111h-255v62h254v-62z m485 320l0 0-182 359c-14 29-43 47-76 47h-34v34c0 13-11 24-24 24h-592c-14 0-25-11-25-24v-34h-34c-32 0-62-18-76-47l-182-359 0 0c-8-13-12-28-12-44v-379c0-47 38-85 85-85h1079c47 0 85 38 85 85v379c0 16-5 31-12 44z m-293 352h35c12 0 23-6 28-17l149-294h-101v90c0 14-11 25-24 25h-30v129c0 14-11 25-24 25h-32v42z m63-245v-66h-128c-22 0-42-13-51-33l-35-77c0-1-1-1-2-1h-333c-1 0-2 0-2 1l-35 77c-9 20-29 33-51 33h-128v66l765 0 0 0z m-654 308h543v-105h-543v105z m599-154v-105h-656v105l656 0 0 0z m-711 74c6 11 17 17 29 17h34v-42h-32c-13 0-24-11-24-24v-130h-30c-13 0-24-11-24-24v-91h-101l148 294z m923-789h-1079c-17 0-31 14-31 31v379c0 17 14 31 31 31h285c1 0 2 0 2-1l35-77c9-20 29-33 51-33h334c21 0 41 13 50 33l35 77v0c1 1 1 1 2 1h285c18 0 31-14 31-31v-379h0c0-17-14-31-31-31z" horiz-adv-x="1249" />

<glyph glyph-name="alerta" unicode="&#xe80b;" d="M954-38l-411 683c-11 17-29 27-49 27s-39-10-49-27l-412-683c-11-17-11-39-1-57 11-18 30-30 51-30h822c21 0 40 12 50 30 10 18 10 40-1 57z m-460 475c24 0 44-14 44-37 0-72-9-176-9-248 0-19-20-27-35-27-19 0-36 8-36 27 0 72-8 175-8 248 0 23 19 37 44 37z m1-447c-27 0-47 22-47 47 0 25 20 46 47 46 25 0 46-21 46-46 0-25-21-47-46-47z" horiz-adv-x="1000" />

<glyph glyph-name="alerta-plano" unicode="&#xe80c;" d="M500 261c-9 0-19-3-25-11-6-6-11-16-11-25 0-11 3-20 11-27 8-6 16-9 25-9 9 0 17 3 25 9 8 7 11 16 11 27 0 9-3 19-11 25-6 8-16 11-25 11z m2 284c-11 0-21-3-27-11-6-7-11-17-11-29 0-10 0-25 2-47l7-113c2-14 4-25 8-32 3-8 10-11 17-11 8 0 15 3 18 11 3 7 6 17 7 31l10 115c1 11 1 22 1 32 0 17-1 31-6 40-5 10-12 14-26 14z m-2 297c-272 0-492-220-492-492 0-272 220-492 492-492 272 0 492 220 492 492 0 272-220 492-492 492z m364-723h-728c-8 0-16 4-20 12-5 8-3 16 0 24l364 584c4 8 12 11 20 11 8 0 16-5 20-11l363-584c3-3 5-10 5-14 0-13-11-22-24-22z" horiz-adv-x="1000" />

<glyph glyph-name="area-acceso-entrada" unicode="&#xe80d;" d="M414 316c0-10 8-18 17-18h58c9 0 17 8 17 18 0 9-8 17-17 17h-58c-9-2-17-8-17-17z m419 473h-250v33c0 5-3 11-6 14-5 3-10 5-14 3l-338-91c-8-1-12-9-12-15v-38-17-56-49-67c-15 0-30 0-44 0-14 0-19-4-19-18 0-18 0-35 0-52 0-22 2-23 23-23 13 0 25 0 38 0v-466c0-8 6-16 14-17l338-68c1 0 1 0 3 0 3 0 7 2 11 4 3 3 6 7 6 12v33h155c0 0 0 0 0 0h51 9 33c10 0 17 8 17 17v845c0 8-6 16-15 16z m-283-891l-303 61v452c22 0 42 0 64 0 0-19 0-36 0-52 0-6 3-15 8-17 4-1 15 0 20 3 44 33 86 66 128 97 13 10 13 22 0 31-42 33-84 66-128 97-5 3-14 7-20 3-5-1-10-10-10-17-1-17 0-33 0-51-6 0-11 0-14 0-17 0-32 0-50 0v67 48 58 17 24l303 81v-902z m266 46h-24c0 0 0 0 0 0h-51-38-119v48h166c9 0 17 8 17 17v682c0 9-8 17-17 17h-167v48h231v-812z m-233 83v646h150v-648h-150z" horiz-adv-x="1000" />

<glyph glyph-name="anotar" unicode="&#xe80e;" d="M966 298c-19 0-35-15-35-34v34c0 19-15 35-34 35s-35-16-35-35v35c0 19-15 34-34 34s-35-15-35-34v138c0 19-15 34-34 34s-35-15-35-34v-328c-20 0-37 14-40 34l-23 125c-3 18-19 31-37 31-21 0-38-17-38-38v-11c0-2 0-4 1-6l31-186c2-12 7-23 14-32l43-53c9-12 15-28 15-43v-114h241v45c0 15 5 31 15 43l39 48c10 12 15 28 15 43v235c0 19-15 34-34 34z m0 0m-276 133v40c0 38 31 69 69 69s69-31 69-69v-40c80 28 138 105 138 195 0 49-18 94-46 130l-231-188-63 63 24 24 41-40 204 166c-36 32-84 52-136 52-115 0-207-93-207-207 0-90 57-167 138-195z m0 0m230 325l56 46-21 27-60-48c9-8 17-16 25-25z m0 0m-679-324l-31-62-69-10 50-48-12-69 62 33 63-33-12 69 50 48-69 10z m0 0m0-327l-26-51-57-9 42-39-10-56 51 27 52-27-10 56 41 39-57 9z m0 0m-51 483l51 27 52-27-10 56 41 39-57 9-26 51-26-51-57-9 42-39z m0 0m207 262h-311c-47 0-86-39-86-86v-828c0-47 39-86 86-86h311c47 0 86 39 86 86v828c0 47-39 86-86 86z m-204-127l48 96 49-96 110-15-80-76 19-106-98 50-97-50 18 106-79 76z m127-729l19-106-98 50-97-50 18 106-79 76 110 15 48 96 49-96 110-15z m9 306l21-119-109 56-108-56 21 119-88 84 121 17 54 108 54-108 122-17z m0 0" horiz-adv-x="1000" />

<glyph glyph-name="amortiguadores" unicode="&#xe80f;" d="M964 569h-28v57h28c16 0 28 12 28 28s-12 28-28 28h-28l0 0c0 62-51 113-113 113s-112-51-112-113l0 0h-31c-16 0-28-13-28-28s12-28 28-28h31v-57h-31c-16 0-28-12-28-28s12-28 28-28h31v-98c-1 0-1 0-2 0h-175v323c0 47-38 85-84 85h-334c-47 0-85-38-85-85v-792c0-46 38-84 85-84h334c46 0 84 38 84 84v301h373c16 0 29 12 29 28l0 0 0 0v238h28c15 0 28 13 28 28s-12 28-28 28z m-197 113c0 31 25 56 56 56s57-25 57-56l0 0h-113l0 0z m0-56h113v-57h-113v57z m-456 140v-848h-56v848h56z m-223-820v31l46 46c11 11 11 29 0 40-11 11-29 11-40 0l-7-6v79l46 46c11 11 11 29 0 40-10 10-28 10-39 0l-7-7v79l46 46c11 11 11 29 0 40-11 11-29 11-40 0l-6-7v79l46 46c11 11 11 29 0 40-11 11-29 11-40 0l-6-6v78l46 46c11 11 11 29 0 40-11 11-29 11-40 0l-6-6v48c0 16 12 28 28 28h82v-848h-81c-16 0-28 13-28 28z m362-28h-83v848h83c15 0 28-12 28-28v-31l-46-46c-11-11-11-29 0-40 5-5 13-8 20-8s14 3 20 8l6 7v-78l-46-46c-11-11-11-29 0-40 6-6 13-8 20-8s14 2 20 8l6 6v-79l-46-46c-11-11-11-29 0-40 6-5 13-8 20-8s15 3 20 8l7 7v-37-42l-47-46c-10-11-10-29 0-40 6-6 13-8 20-8 8 0 15 2 20 8l7 6v-79l-46-46c-11-11-11-29 0-40 5-5 12-8 20-8s14 3 20 8l6 7v-48c-1-16-14-29-29-29z m84 441h175c1 0 1 0 2 0v-56h-177v56z m346-56h-113v210h113v-210z" horiz-adv-x="1000" />

<glyph glyph-name="baterias" unicode="&#xe810;" d="M960 397c16 0 28 13 28 29v114c0 16-12 28-28 28h-29v29c0 47-38 85-85 85s-86-38-86-85v-29h-57v86c0 16-13 28-28 28h-346c-16 0-29-12-29-28v-86h-57v29c0 47-38 85-85 85s-86-38-86-85v-29h-28c-16 0-28-12-28-28v-114c0-16 12-29 28-29h29v-361h-29c-16 0-28-12-28-28v-114c0-16 12-29 28-29h916c16 0 28 13 28 29v114c0 16-12 28-28 28h-29v361h29z m-143 200c0 16 13 28 29 28s28-12 28-28v-29h-57v29z m-459 28h288v-57h-288v57z m-228-28c0 16 12 28 28 28s29-12 29-28v-29h-57v29z m-57-86h858v-57h-858v57z m858-589h-858v57h858v-57z m-57 114h-744v361h744v-361z m-467 183c5-11 15-17 27-17h68l-60-60c-11-11-11-29 0-40 6-6 13-9 20-9s15 3 20 9l108 108c9 8 11 20 7 31-5 11-15 18-27 18h-68l33 33c12 11 12 29 0 40-11 11-29 11-40 0l-81-82c-9-8-11-20-7-31z" horiz-adv-x="1000" />

<glyph glyph-name="calendarioaño" unicode="&#xe811;" d="M342 178c11 2 19 6 26 11 7 5 12 11 15 18 4 8 5 17 5 28 0 17-4 31-14 40-9 9-24 15-44 17l49 57v26h-124v-29h82l-48-56v-22h9c19 0 32-3 40-8 8-5 12-13 12-24 0-12-4-20-11-25-8-5-20-7-38-7-16 0-32 2-48 7v-30c16-4 33-7 51-7 15 0 28 2 38 4z m95 18c6-7 14-13 23-16 9-4 21-6 34-6 13 0 24 2 33 4 9 3 17 7 23 12 6 6 10 13 13 21 3 9 4 19 4 31 0 23-5 39-16 49-10 10-27 15-51 15-22 0-36-5-44-17 1 21 6 36 15 46 9 9 23 14 43 14 6 0 13-1 21-2 7-1 14-2 21-5v30c-14 4-29 6-45 6-17 0-30-2-42-6-12-4-21-11-28-20-8-9-13-21-16-35-4-14-5-31-5-50 0-17 1-31 4-42 2-12 7-21 13-29z m29 73c7 6 16 9 30 9 12 0 21-3 27-9 6-6 8-15 8-28 0-13-3-23-9-28-6-6-15-9-29-9-24 0-36 13-36 40 0 11 3 20 9 25z m243-80c13 10 20 26 20 47 0 21-6 37-18 47-11 9-30 14-55 14-8 0-15 0-22-1v50h85v29h-119v-107c7 0 14 1 20 1 7 1 14 1 20 1 18 0 31-3 39-8 8-5 11-14 11-25 0-12-3-21-11-26-7-5-19-8-36-8-17 0-33 3-49 8v-30c16-5 33-7 51-7 30 0 51 5 64 15z m227 373c0 59-48 107-108 107h-35v24c0 24-19 43-43 43h-37c-23 0-43-19-43-43v-24h-340v24c0 24-20 43-43 43h-37c-24 0-43-19-43-43v-24h-35c-59 0-107-48-108-107h0v0-51-2-318-109c0-65 48-117 108-117h387 27 242c60 0 108 52 108 117v109 118 25 174 3 50l0 1 0 0z m-33-480c0-46-34-84-75-84h-120c46 16 93 39 126 68 31 29 53 70 69 112v-96z m0 426v-196c-8-51-32-167-92-221-59-54-176-83-229-94h-410c-41 0-75 38-75 85v109 317 3h806v-3z" horiz-adv-x="1000" />

<glyph glyph-name="calendario" unicode="&#xe812;" d="M837 850c7 0 15 0 22 0 42-27 23-69 31-106 25 0 51 0 76 0 63 0 93-31 93-93 0-232-2-464 2-696 0-72-45-100-101-100-243 2-486 0-729 0-21 0-34 6-49 19-57 59-116 114-175 173 0 212 0 425 0 636 34 82 108 51 169 61 8 36-12 78 30 102 8 0 15 0 23 0 40-24 23-68 30-104 183 0 365 0 549 0 6 39-13 81 29 108z m-602-940c8 0 13-2 17-2 234 0 467 0 701 0 34 0 47 15 47 51 0 162 0 321 0 483 0 38-15 51-53 51-277 0-553 0-830 0-40 0-53-13-53-55 0-104 0-211 0-315 0-14 0-29 0-46 38 0 74 0 108 0 40 0 61-21 63-61 0-34 0-68 0-106z m-67 750c-19-24-19-59 6-81s65-21 87 3c25 25 23 59 4 78-17-13-32-34-47-32-17-2-32 19-50 32z m633-2c-19-24-19-59 7-81 25-23 65-21 88 3 24 25 22 57 4 78-17-13-33-34-48-34-19 2-36 23-51 34z m-595-712c0 29 2 55-2 84 0 7-13 21-20 21-29 1-57 1-82 1 36-36 70-70 104-106z" horiz-adv-x="1063" />

<glyph glyph-name="canaldefectuoso" unicode="&#xe813;" d="M776 676c-12 28-28 54-50 77-2 3-5 6-7 9-19 19-40 34-63 46-7 4-15 8-23 11-32 14-66 21-101 20-13 0-24-10-24-24 0-1 1-3 1-4 0-1 0-1 0-2 1-1 1-2 1-3 1 0 1-1 1-1 0-1 1-2 1-3 1 0 1-1 1-1 0-1 1-2 2-3 0 0 0 0 0 0 1-1 2-2 4-3l0-1c2 0 2-1 3-1 1-1 1-1 1-1 1 0 2-1 2-1 2 0 5-1 7-1 28 0 56-5 83-16 25-10 49-26 70-47s36-44 46-70c11-26 17-54 17-83 0-13 10-24 24-24 13 0 24 11 24 24 0 35-7 69-20 102z m-125 18c-16 16-35 28-54 37-21 8-43 12-65 12-13 0-24-10-24-24 0-1 1-3 1-4 0 0 0-1 0-2 1-1 1-2 1-3 1 0 1-1 1-1 0-1 1-2 1-3 1 0 1-1 1-1 0-1 1-1 2-2 0-1 0-1 0-1 1-1 2-2 4-3l0-1c2 0 2-1 4-1 0-1 0-1 1-1 0 0 1-1 2-1 2 0 4-1 6-1 16 0 32-3 46-9 14-6 27-15 39-26 12-12 20-25 26-39 6-15 9-30 9-46 0-13 11-24 24-24 14 0 24 11 24 24 0 22-4 44-12 64-7 18-17 33-29 47 0 0 0 1-1 1-3 3-5 6-7 8z m-127-135c0-1 0-1 1-1 1-1 2-2 3-2 1 0 1 0 1 0 18-11 43-9 59 7 16 16 18 40 7 59-1 0-1 0-1 0 0 1-1 2-2 3-1 0-1 1-1 1-1 1-2 3-4 4-18 19-49 19-68 0-18-18-18-49 0-67 2-2 3-3 5-4z m54-317c-56 2-108-20-144-57v52c0 8 6 13 14 12 8-1 17-1 26-1 71 0 139 27 190 79l0 0c7 7 7 19 0 26l-355 355c-7 7-18 7-25 0l-1-1c-105-105-105-276 0-380 5-5 11-10 16-15 5-4 7-9 7-14v-161c0-7-4-14-10-17-37-19-67-51-81-91l-6-17c-2-4 1-8 5-8h172c21-82 95-143 184-143 109 0 196 91 190 201-5 97-84 176-182 180z m-304-201c-5 0-8 6-5 10 16 20 37 35 61 43l0 0c8 3 13 10 13 18v204c0 6-3 11-7 15l0 0c-10 7-18 14-27 22-80 81-89 207-25 297 6 9 19 11 27 3l297-298c9-8 7-22-2-28-54-38-121-51-186-36l-8 2c-8 2-15-3-15-11v-152c-11-24-17-51-17-79 0-3 0-6 0-10h-106z m146 10c0 83 67 150 150 150 34 0 65-11 90-30l-209-210c-20 25-31 56-31 90z m150-150c-34 0-65 12-90 31l210 210c19-25 30-57 30-91 0-82-67-150-150-150z" horiz-adv-x="1000" />

<glyph glyph-name="cliente-informacion-a" unicode="&#xe814;" d="M20 132c8-5 16-8 25-8 14 0 28 7 37 20 73 109 193 174 324 175 42 0 84-7 124-20 55-18 98-31 118-63 0 0 19-30 24-27 2 1 1 5 4 6 3 0 8-4 8-4l0 0c0 0 6 50 4 72-4 27-29 63-120 98 56 46 92 117 92 196-1 140-115 254-254 253-140-1-253-115-253-255 1-78 37-148 93-194-96-35-180-99-238-187-14-21-9-49 12-62z m386 608c90 1 164-72 164-163 0-90-73-163-163-164-90 0-164 73-164 163 0 90 72 164 163 164z m341-371c-133 0-241-108-241-240s108-241 241-241c132 0 240 108 240 241 0 132-108 240-240 240z m40-373c0-22-18-40-40-40-22 0-40 18-40 40v129c0 22 18 40 40 40 22 0 40-18 40-40v-129z m0 239c0-22-18-40-40-40-22 0-40 18-40 40v26c0 22 18 40 40 40 22 0 40-18 40-40v-26z" horiz-adv-x="1000" />

<glyph glyph-name="capturauto" unicode="&#xe815;" d="M364 147c-8 0-14-6-14-14s6-14 14-14h273c7 0 13 6 13 14s-6 14-13 14h-273z m286-89c0 7-6 14-14 14h-272c-8 0-14-7-14-14s6-14 14-14h273c7 0 13 6 13 14z m86 768h-472c-40 0-73-33-73-72v-808c0-39 32-72 73-72h472c40 0 73 32 73 72v808c0 39-33 72-73 72z m38-890c-5-16-20-28-38-28h-472c-18 0-33 12-38 28h548z m-387 795h226c23 0 41 18 41 41v20h82c22 0 39-17 39-38v-784h-550v784c0 21 17 38 39 38h82v-20c0-23 19-41 41-41z m233 41c0-4-3-7-7-7h-226c-4 0-7 3-7 7v20h240v-20z m-125-244c-14 8-31 8-46 0-14-8-22-23-22-39v-87c0-16 8-31 22-39 8-4 16-7 23-7 8 0 16 3 23 7l75 43c14 8 23 23 23 39 0 17-9 32-23 40l-75 43z m62-101l-74-43c-7-3-14-3-21 0-6 4-10 11-10 18v87c0 7 4 14 10 17 3 2 7 3 11 3s7-1 10-3l74-42c7-4 11-11 11-18 0-8-4-15-11-19z m83 187h-280c-42 0-76-34-76-76v-193c0-42 34-76 76-76h280c42 0 76 34 76 76v91 24 50 9 19c0 42-34 76-76 76z m51-104v-50-24-91c0-29-23-51-51-51h-280c-28 0-51 22-51 51v193c0 28 23 51 51 51h280c28 0 51-23 51-51v-19-9z" horiz-adv-x="1000" />

<glyph glyph-name="campespecial" unicode="&#xe816;" d="M758 145l-71 483c-2 8-7 15-15 17-8 3-16 1-22-5-63-69-113-112-164-141-49-27-105-44-174-52 0 0 0 0-1-1l-178-26c-11-2-19-13-17-24l2-18-44-7c-44-7-75-48-68-92 6-44 47-74 92-68l44 7 3-18c2-12 12-20 24-18l8 1 56-127c11-27 40-42 67-38 6 1 11 2 16 5l19 7c32 14 47 52 33 84l-40 92 19 2c0 0 1 1 1 1 70 13 127 13 181 1 57-13 118-40 198-87 4-2 9-3 14-2 3 0 6 1 8 3 7 4 11 13 9 21z m-83 250l-52-50 12-72c1-3 0-7-2-9-2-2-5-4-9-4-1 0-3 0-5 1l-64 34-65-34c-1 0-3-1-5-1-3 0-6 1-8 4-2 2-3 6-2 9l12 72-52 50c-3 3-4 8-3 11 1 4 4 7 9 8l72 10 32 66c2 4 5 6 10 6 4 0 8-2 10-6l32-66 72-10c4-1 7-4 9-8 1-4 0-8-3-11z m297 46l-180-25c-11-2-19-12-17-23s12-19 23-18l180 26c11 2 19 12 17 23s-12 19-23 17z m-224 56c6 1 10 4 14 8l109 145c7 9 5 22-4 29-9 7-22 5-29-4l-109-145c-7-9-5-22 4-29 5-3 10-5 15-4z m45-216c-9 7-21 5-28-4-7-9-5-21 4-28l145-109c4-4 10-5 15-4 6 1 11 3 14 8 7 9 5 22-4 28l-146 109z" horiz-adv-x="1000" />

<glyph glyph-name="climatizacion" unicode="&#xe817;" d="M625 73h84c39 0 70 32 70 70l0 208c0 32-15 60-40 77 0 2-56 109-56 109-17 32-48 51-83 51h-221c-35 0-65-19-82-51-9-17-58-110-58-110-25-17-41-45-41-77l0-207c0-38 32-70 70-70h84c39 0 70 32 70 70v42h134v-42c0-38 31-70 69-70z m98 70c0-7-6-14-14-14h-84c-7 0-14 7-14 14v42h75c13 0 26 3 37 8l0-50 0 0z m-377 369c7 13 19 20 33 20h221c15 0 26-7 33-21 0 0 30-56 31-58-71 14-157 17-175 17-63 0-124-6-173-16 0 0 21 41 30 58z m20-369c0-7-6-14-14-14h-84c-7 0-14 7-14 14v50c12-5 25-8 38-8h74l0-42 0 0z m-74 98c-10 0-20 4-27 11-7 7-11 16-11 26l0 72c0 16 9 29 24 35 47 18 126 30 211 30 33 0 149-7 209-28 16-6 26-19 26-36l-1-77c-1-18-17-33-37-33l-394 0 0 0z m47 111c-16 0-28-12-28-28s12-28 28-28 27 13 27 28c0 16-12 28-27 28z m300 0c-15 0-28-12-28-28s13-28 28-28c16 0 28 13 28 28 0 16-12 28-28 28z m-111 0h-78c-16 0-28-12-28-28s12-28 28-28h78c15 0 28 13 28 28 0 16-13 28-28 28z m-438 79c4 0 8 1 11 3l88 36c14 6 21 23 15 37-6 14-23 21-37 15l-25-11c64 144 207 239 366 239 182 0 341-123 386-299 4-13 15-21 27-21 2 0 5 0 7 1 15 4 24 19 20 34-52 200-233 341-440 341-183 0-346-109-418-275l-9 22c-6 15-22 21-37 15-14-6-21-22-14-36l35-84c4-10 15-17 25-17z m884-302l-35 84c-4 10-15 17-25 17-4 0-8-1-11-3l-88-36c-14-6-21-23-15-37 6-14 23-21 37-15l25 11c-64-144-207-239-366-239-182 0-341 123-386 299-4 13-15 21-27 21-2 0-5 0-7-1-15-4-24-19-20-34 52-201 233-341 440-341 183 0 346 109 418 275l9-22c6-15 22-21 37-15 14 6 20 22 14 36z" horiz-adv-x="1000" />

<glyph glyph-name="ciclovida" unicode="&#xe818;" d="M478 623c-19 0-34-16-34-35v-211c-16-11-27-29-27-49 0-34 28-61 61-61 9 0 18 2 26 6l120-70c6-3 12-5 18-5 12 0 23 7 30 18 9 16 4 38-13 47l-121 70c-1 18-11 34-25 44v211c0 19-16 35-35 35z m0-321c-14 0-26 12-26 26 0 14 12 26 26 26 15 0 27-12 27-26-1-14-13-26-27-26z m390-158l-34 45-94 125h39 29l5 28c8 48-4 104-35 158-29 52-72 97-118 124-49 27-104 42-159 42-73 0-143-26-203-74l-33 43-28 38c36 28 74 50 112 66 47 19 96 29 147 29 38 0 77-5 118-16 44-12 85-31 122-56 36-25 69-56 97-94 55-71 83-154 86-253l1-33h34 43l-75-100-54-72z m-104-117c-37-28-74-50-113-66-47-19-96-29-147-29-38 0-77 5-117 16-45 12-86 31-123 56-36 25-69 56-97 94-56 72-84 155-87 253l-1 34h-33-43l129 171 111-147 17-23h-39-29l-5-28c-8-47 4-103 35-158 29-52 72-97 118-123 49-28 104-43 159-43 73 0 143 26 204 74l50-67 11-14z" horiz-adv-x="1000" />

<glyph glyph-name="barcelona" unicode="&#xe819;" d="M175 788c0 0-37 10-11-53 0 0 39-49 40-86s12-83 0-124c-12-41-19-49-22-75-3-27-19-56-46-83-26-26-25-50-22-65 3-14 4-34-1-54-6-21-12-46-8-65 5-19 11-40-14-54s-26-15-26-15 21-18 20-46c-2-28 1-54-11-77-11-22 83-80 83-80s40 23 66 15c27-7 11 10 24 18 13 9 26 11 23 19-4 8-35 26-30 44 5 18 73 114 131 127 57 13 82 25 99 26s40 11 47 13c6 2 27 2 38 15 11 14 20 19 39 24 19 5 46 51 64 63 19 11 57 26 66 38 9 12 44 44 66 53 22 9 31 22 46 35 15 12 34 25 40 37 6 11 6 18 21 26 15 8 37 28 27 69s-39 41-29 60c10 19 41 12 40 27-2 14-36 56-55 63-18 8-67 20-93-3s-51-62-84-50c-32 12-74 37-98 29s-50-36-73-21c-23 14-61 17-77 21-16 4-19 13 4 24 24 11-11 42-30 45-19 3-14-5-21-9-5-3-20-15-41 0-20 14-35 5-60 16-26 11-132 53-132 53z" horiz-adv-x="1000" />

<glyph glyph-name="cerrar" unicode="&#xe81a;" d="M587 342l377 378c24 23 24 61 0 85-23 23-61 23-85 0l-377-378-378 378c-23 23-61 23-84 0-24-24-24-62 0-85l377-378-377-377c-24-24-24-62 0-85 11-12 27-18 42-18s31 6 42 18l378 377 378-377c11-12 27-18 42-18 15 0 31 6 42 18 24 23 24 61 0 85l-377 377z" horiz-adv-x="1000" />

<glyph glyph-name="cerrar-boton" unicode="&#xe81b;" d="M844 694c-92 92-214 142-344 142s-252-50-344-142-142-214-142-344c0-130 50-252 142-344s214-142 344-142 252 50 344 142c92 92 142 214 142 344 0 130-50 252-142 344z m-134-487c19-19 19-49 0-67-9-9-21-14-33-14s-24 5-34 14l-143 143-143-143c-9-9-22-14-34-14s-24 5-33 14c-19 18-19 48 0 67l143 143-143 143c-19 19-19 49 0 67 18 19 48 19 67 0l143-143 143 143c19 19 49 19 67 0 19-18 19-48 0-67l-143-143 143-143z" horiz-adv-x="1000" />

<glyph glyph-name="atras-boton" unicode="&#xe81c;" d="M912 589c-42 73-100 131-173 173-73 43-153 64-239 64-86 0-166-21-239-64-73-42-131-100-173-173-43-73-64-153-64-239 0-86 21-166 64-239 42-73 100-131 173-173 73-43 153-64 239-64s166 21 239 64c73 42 131 100 173 173 43 73 64 153 64 239 0 86-21 166-64 239z m-261-429c7-8 12-17 12-28 0-11-4-20-12-28l-63-63c-8-8-18-12-28-12-11 0-20 4-28 12l-282 281c-8 8-12 17-12 28 0 11 4 20 12 28l282 281c7 8 17 12 27 12 11 0 21-4 28-12l63-63c8-8 12-17 12-28 0-10-4-20-12-27l-190-191 191-190z" horiz-adv-x="1000" />

<glyph glyph-name="carnet" unicode="&#xe81d;" d="M872 677c-88 0-177-2-264-2v58c0 9-8 19-19 19h-178c-9 0-19-8-19-19v-56c-90 0-181 0-270 0-11 0-22 0-33 0-47-4-81-39-81-86 0-185 0-369 0-552 0-45 34-81 80-84 9-2 20-2 29-2 255 0 508 2 763 0 53 0 92 17 112 67 0 199 0 397 0 597-25 47-67 60-120 60z m76-625c0-41-15-57-56-57-261 0-523 0-784 0-41 0-56 16-56 57 0 175 0 350 0 525 0 39 15 54 54 54 133 0 264 0 397 0 130 0 260 0 388 0 42 0 57-14 57-58 0-173 0-348 0-521z m-628 273c43 56 43 109 0 148-36 35-95 40-131 5-17-15-30-39-36-61-9-34 6-65 25-86-11-12-22-23-28-36 0 0-27-36-27-65 0 0 0 0 0 0-3-19-3-38-1-58 1-30 19-49 48-49 55-1 110-1 164 0 30 2 46 21 47 50 3 61-4 116-61 152z m-68 131c31 0 56-25 56-54 0-30-25-57-55-57-31 0-58 27-58 57 0 31 25 54 57 54z m84-286c-58 0-114 0-170 0 0 16 1 32 0 46l0 0c0 0 9 45 17 51 3 3 5 8 8 10 26 23 56 29 89 17 33-13 51-38 54-72 4-16 2-33 2-52z m509 305h-351c-13 0-24-11-24-23 0-13 11-24 24-24h351c13 0 24 11 24 24 1 12-10 23-24 23z m0-123h-351c-13 0-24-11-24-24v0c0-12 11-23 24-23h351c13 0 24 11 24 23v0c1 13-10 24-24 24z m0-124h-351c-13 0-24-11-24-23 0-13 11-24 24-24h351c13 0 24 11 24 24 1 14-10 23-24 23z" horiz-adv-x="1000" />

<glyph glyph-name="adjuntar" unicode="&#xe81e;" d="M190-92c-45 0-88 18-120 50-67 67-67 175 0 241l526 527c43 43 99 66 159 66 60 0 117-24 159-66 43-42 66-99 66-159 0-60-23-116-66-159l-414-415c-13-12-33-12-45 0-13 13-13 33 0 46l414 414c31 31 47 71 47 114 0 43-16 83-47 114-30 30-71 47-114 47-43 0-83-17-114-47l-526-527c-42-41-42-109 0-151 40-40 110-40 150 0l354 354c10 10 15 23 15 37 0 13-5 26-15 36-20 20-53 20-73 0l-241-242c-13-12-33-12-45 0-13 13-13 33 0 45l241 242c45 45 118 45 163 0 22-22 34-51 34-82 0-30-12-60-34-81l-353-354c-32-32-75-50-121-50z" horiz-adv-x="1000" />

<glyph glyph-name="datosenvio" unicode="&#xe81f;" d="M645 644c-3 3-7 3-11 1l-620-288c-4-2-6-5-6-9 0-3 2-7 5-8l176-86c3-2 7-2 10 0l171 128-135-138c-2-2-2-4-2-7l13-174c0-4 3-7 7-9 1 0 2 0 3 0 2 0 5 1 7 3l93 108 115-55c3-1 6-1 8 0 3 1 5 3 5 6l163 518c2 4 1 7-2 10z m323-50h-266l-16-48h282c13 0 24 11 24 24v0c0 13-11 24-24 24z m-30-170c13 0 24 10 24 24 0 13-10 24-24 24h-275l-15-48h290z m-37-122c13 0 24 10 24 24 0 13-11 24-24 24h-276l-15-48h291z" horiz-adv-x="1000" />

<glyph glyph-name="cliente-a" unicode="&#xe820;" d="M26-61c10-6 21-9 31-9 18 0 35 8 46 24 89 133 238 212 398 212 159 0 308-79 397-211 16-25 51-32 76-15 25 17 32 51 15 76-71 106-173 184-290 226 70 57 115 144 115 241 0 171-140 311-311 311s-311-140-311-311c0-97 44-183 113-240-118-42-222-120-293-228-17-25-11-59 14-76z m477 745c111 0 201-91 201-201s-91-201-201-201-201 90-201 201 90 201 201 201z" horiz-adv-x="1000" />

<glyph glyph-name="coche" unicode="&#xe821;" d="M943 7c-12 0-26 0-41 0-12 0-25 0-37 0h-3c-14 0-28 0-42 0-21 0-26 0-31 2l-4 2-1 3c-4 6-4 12-4 32 0 10-2 13-12 13-92 7-183 11-270 11s-177-4-268-11c-13 0-14-3-14-13 0-19 0-26-4-30l-2-3-3-2c-5-4-12-4-31-4-14 0-28 0-42 0h-2c-26 0-53 0-79 0l0 0c-13 0-19 2-25 7-5 5-6 12-6 23 1 48-2 96-6 145-1 14-1 28-3 41-4 45 2 91 10 144 4 28 21 47 38 66-3 2-5 4-8 5-11 6-19 11-26 16-11 9-16 17-16 26 0 5 5 14 19 22 21 13 47 18 81 18 11 0 14-7 19-12 2-4 6-7 9-9l10 21c14 28 28 55 42 83 17 43 48 66 93 72 73 13 144 18 212 18 69 0 140-5 212-18 45-6 77-29 96-70 12-28 27-57 41-83l11-21c3 2 5 5 8 8 4 6 9 13 19 13 35 0 61-6 83-16 12-7 19-14 21-23 0-8-4-17-16-26-8-6-17-12-28-17-3-2-5-3-8-5 17-19 34-38 38-68 8-52 14-97 10-144-2-13-2-27-3-41-4-49-9-97-6-145 0-11-1-18-6-23-6-3-14-7-25-7z m-41 30c15 0 29 0 41 0l0 0c-2 50 2 100 5 149 2 13 2 27 4 41 4 44-2 87-9 137-3 21-17 36-32 54l-23 24 29 17c6 2 9 6 12 7 7 4 16 9 21 12-17 9-36 12-64 12-4-5-10-14-22-19l-23-8-22 45c-14 27-28 55-42 84-14 32-36 49-73 54-71 10-140 18-207 18s-137-6-208-18c-35-5-57-21-73-54-12-29-28-57-42-84l-22-45-22 8c-13 5-19 14-23 19-28 0-47-3-64-12 7-5 14-9 21-12 3-2 8-5 12-7l29-17-22-25c-18-19-31-32-33-53-9-52-12-94-9-137 0-14 2-28 2-42 4-48 9-98 5-148 0 0 0 0 2 0 26 0 54 0 82 0h1c14 0 28 0 42 0 4 0 7 0 10 0 0 3 0 6 0 10 0 34 23 43 40 43 92 7 184 11 272 11 86 0 178-4 272-11 17-1 39-8 39-43 0-2 0-7 0-10 4 0 7 0 11 0 14 0 28 0 41 0h4c13 0 26 0 38 0z m-103 2l0 0 0 0z m-605 0l0 0 0 0z m-156 444l0 0 0 0z m159-43c-3 0-7 2-8 5-2 6 0 11 5 12 8 4 206 87 612 11 6-2 9-7 9-12-2-6-7-9-12-9-209 38-362 35-452 24-98-12-149-32-149-32-3 1-5 1-5 1z m51-213c7 0 12 2 14 4 2 1 2 7 0 12-4 10-12 30-35 33-21 4-44 5-67 7-18 2-37 4-54 6-2 0-2 0-4 0-4 0-5 0-5-2 0 0-2-2-2-11l0 0c2-31 23-53 54-53l99 4z m21-49c-39 0-77 0-116 0-12 0-19-5-18-18 0-10 7-14 18-14 19 0 39 0 60 0 19 0 37 0 56 0 11 0 19 4 19 16 0 11-8 16-19 16z m574 45c32 0 53 22 55 53l0 0c0 9-2 11-2 11 0 2-2 2-5 2-2 0-2 0-4 0-17-2-37-4-54-6-23-2-46-3-67-7-23-3-32-23-35-33-2-5-2-11 0-12 2-2 7-4 14-4l98-4z m-138-61c0-12 9-16 19-16 19 0 37 0 56 0 21 0 41 0 60 0 11 0 18 4 18 14 1 13-6 18-18 18-39 0-77 0-116 0-10 0-19-5-19-16z m-183 199h-49l-34-64c-5-8-5-19 0-30l34-63h49l33 63c6 9 6 20 0 30l-33 64z m-23-118h-3l-22 40 22 41h3l21-41-21-40z" horiz-adv-x="1000" />

<glyph glyph-name="cliente-interrogacion-a" unicode="&#xe822;" d="M20 132c8-5 16-8 25-8 14 0 28 7 37 20 73 109 193 174 324 175 42 0 84-7 124-20 29-9 96-41 118-63 0 0 13-13 17-11 1 1 1 3 3 7 1 5 3 5 4 8 1 5 0 10 0 11-1 12 18 30 20 38 4 12-20 38-124 92 56 47 92 117 92 197-1 139-115 253-254 252-140-1-253-115-253-255 1-78 37-148 93-194-96-35-180-99-238-187-14-21-9-49 12-62z m386 608c90 1 164-72 164-163 0-90-73-163-163-164-90 0-164 73-164 163 0 90 72 164 163 164z m351-383c-128 0-233-104-233-233s105-233 233-233 233 104 233 233-104 233-233 233z m18-367c0-10-8-18-18-18s-18 8-18 18v18c0 10 8 18 18 18s18-8 18-18v-18z m26 147c-16-10-26-30-26-50v-26c0-10-8-18-18-18s-18 8-18 18v26c0 33 16 63 42 80 13 8 21 23 21 38-1 24-21 44-44 44-13 1-24-4-32-12-9-9-14-20-14-32 0-10-8-18-18-18s-18 8-18 18c0 21 9 42 24 57 16 15 36 23 57 23 0 0 1 0 1 0 43 0 79-36 80-79 0-28-14-54-37-69z" horiz-adv-x="1000" />

<glyph glyph-name="cliente-ok-a" unicode="&#xe823;" d="M20 132c8-5 16-8 25-8 14 0 28 7 37 20 73 109 193 174 324 175 42 0 84-7 124-20 29-9 96-41 118-63 0 0 13-13 17-11 1 1 1 3 3 7 1 5 3 5 4 8 1 5 0 10 0 11-1 12 18 30 20 38 4 12-20 38-124 92 56 47 92 117 92 197-1 139-115 253-254 252-140-1-253-115-253-255 1-78 37-148 93-194-96-35-180-99-238-187-14-21-9-49 12-62z m386 608c90 1 164-72 164-163 0-90-73-163-163-164-90 0-164 73-164 163 0 90 72 164 163 164z m308-347c-142 0-255-113-255-255s113-255 255-255 255 113 255 255-113 255-255 255z m147-175l0 0-185-192c-3-3-5-4-9-4s-7 1-8 4l-90 97-3 2c-2 3-3 6-3 9s1 6 3 8l17 16c4 5 11 5 16 0l1-1 64-68c2-3 6-3 8 0l156 161h1c4 4 11 4 16 0l16-17c5-3 5-10 0-15z" horiz-adv-x="1000" />

<glyph glyph-name="compartir-simple" unicode="&#xe824;" d="M990 319l-409 455v-271h-87c-269 0-487-222-487-495v-144l38 43c131 146 317 229 511 229h25v-271l409 454z" horiz-adv-x="1000" />

<glyph glyph-name="click" unicode="&#xe825;" d="M855 648c15 12 36 11 50-2 0 0 0 0 0 0 13-13 14-34 2-49-4-6-10-11-15-16l-122-122c-80-80-159-158-238-238l-1-1c-5-5-11-11-15-19-3-9 1-21 6-26 7-7 19-7 26-4 7 2 12 7 16 12l2 1c13 13 26 26 39 39 21 22 43 44 65 65 6 6 13 13 21 16 17 8 40 2 50-13 14-19 11-39-6-56-9-10-19-19-28-29-41-41-83-84-126-124-20-19-46-35-71-45-57-23-115-18-172 14l-2 2c-8 4-17 9-27 6-6-2-10-6-14-12-3-7-5-13-3-19 1-4 4-7 6-9 4-4 9-7 13-9 1-1 2-1 3-2 91-53 204-44 282 21 29 25 56 53 83 79 11 12 22 23 33 34 4 4 8 8 13 12 16 15 32 31 48 48 22 25 30 56 23 86-7 30-30 54-61 65l48 49c45 44 89 89 134 133 10 11 22 22 32 35 19 27 22 57 7 87-11 25-33 43-60 48-28 5-58-4-81-26-29-29-59-59-88-88-14-14-28-28-42-42-1-1-1-1-2-2-18 42-52 62-99 57-9 31-24 53-46 64-22 12-49 11-81-1-12 32-35 52-64 59-33 7-68-6-94-35-30-33-62-64-93-95-15-14-29-28-43-42-51-51-83-98-101-149-11-33-19-68-26-101l0-1c-2-11 6-30 17-33 8-3 15-1 19 1 9 6 11 19 12 25 0 2 0 4 1 6 0 2 0 4 0 6 13 74 40 133 84 180 47 49 97 98 145 146 10 11 21 21 32 32 8 8 19 13 29 13 9 0 17-4 25-12 16-16 15-36-2-54-8-9-17-17-25-25-5-6-11-11-16-16-1-1-2-2-3-3-7-6-14-13-14-24 0-6 3-12 8-17 5-6 11-8 17-8 10 1 17 8 23 14 1 1 3 3 4 4 13 13 26 26 39 39 11 12 23 23 35 35 10 10 22 16 34 16 9 0 18-4 25-12 15-16 13-38-5-57-13-13-25-25-37-37-8-8-15-16-23-23l-1-2c-7-6-21-21-6-38 5-5 11-8 17-8 11-1 19 7 24 13 8 7 15 14 22 22 17 17 35 35 53 52 11 11 22 17 33 17 9 0 18-4 25-11 16-17 14-38-5-58-13-12-26-25-38-38-15-15-31-31-46-46-1-1-3-3-4-4-6-6-14-13-15-23 0-7 3-13 9-19 6-5 12-8 18-7 11 0 18 8 23 14l286 285z" horiz-adv-x="1000" />

<glyph glyph-name="calidad" unicode="&#xe826;" d="M562 424c47-34 112-23 146 24 34 47 24 112-23 146-47 34-112 24-146-23-34-47-24-113 23-147z m5 126c23 31 66 38 98 16 31-23 38-66 15-97-22-31-66-38-97-16-31 22-38 66-16 97z m6-354l-12 17-316-330c-13-12-65 4-118 57-24 24-43 52-53 76-8 19-9 35-3 42l198 185 120 118-32 10-96-95-173-162-31 38c-3 3-2 9 1 13l262 231c-1 7 3 15 9 19l33 21 88 85 6 7c3 28 13 54 30 78l-59-66-130-128-258-226c0 0 0 0-1 0-14-14-16-38-3-53l31-39-16-15c0 0 0 0 0-1-15-15-17-41-4-73 12-28 33-59 60-86 39-39 89-69 126-69 14 0 25 4 34 13 0 0 0 0 0 0l230 245 83 83c-3 1-5 3-6 5z m389 455c-16 39-45 81-83 119-38 37-76 63-110 74-36 11-67 7-87-13l-161-185-12-14c21 20 46 33 73 40l121 138c16 16 42 10 57 6 28-10 60-31 92-62-12 9-24 15-36 20-32 13-57 12-73-3 0 0 0 0 0 0-1-1-1-1-1-1 0 0 0 0 0 0 0 0 0 0 0 0l-89-96c-62 11-127-13-165-67-25-33-35-73-32-111l-126-81c-7-5-11-12-9-20 1-8 6-14 13-17l61-19-7-63 0 0c-1-7 2-15 8-19 0 0 1-1 1-1 7-4 15-4 22 0l48 32-16-64c-2-7 0-15 6-20 1-1 1-1 2-1 6-4 13-5 20-2l58 27 37-52c4-6 12-10 20-8 8 1 14 7 16 15l7 26 108 109 233 217c0 0 0 0 0 0 0 0 0 0 0 0 0 0 0 0 0 0 1 1 1 1 1 1 19 20 20 54 3 95z m-446-64c43 59 126 73 185 30 60-43 73-126 30-186-23-31-57-50-93-54-31-3-62 4-89 22-1 1-2 2-3 2 0 1 0 1 0 1-29 21-47 52-53 84-6 35 1 71 23 101z m-35-229l-55-35 6 44c0 7-3 14-9 19-1 1-3 2-5 3l-42 13 88 57c6-20 16-38 29-55l-12-46z m103-116l-26 36c-6 8-16 11-25 7l-40-19 18 70 10 40 1 0c1-1 2-2 3-3 2-1 5-3 7-4 5-4 10-7 16-9 20-11 41-16 62-18l-26-100z m49 46l-1 0 15 55c25 4 49 13 70 27l-11-11c-14-12-39-37-73-71z m123 118c1 2 2 3 3 5 55 75 38 180-37 234-12 9-24 16-38 21l48 51c2-6 4-13 7-20 11-28 33-58 60-86 27-27 58-48 86-60 6-3 13-5 19-6l-148-139z m181 170l0 0c-6-7-22-6-41 2-25 10-52 29-77 54-24 25-43 52-53 76-8 20-9 35-3 42l0 0c3 3 7 4 13 4 8 0 18-2 29-7 24-10 51-29 76-54 53-53 69-105 56-117z" horiz-adv-x="1000" />

<glyph glyph-name="compratir" unicode="&#xe827;" d="M938 399l-19 14c-18 14-37 28-55 41-20 14-39 30-58 44-22 17-45 35-68 51-3 2-6 5-9 8-17 13-41 29-67 27-35-4-63-42-63-74v-85c0 0-1 0-3 0-78 0-463-20-463-431 0-12 9-22 20-24 1 0 3 0 4 0 9 0 18 6 22 16 2 9 70 213 376 213 15 0 33-1 44-2v-78c0-27 18-53 42-67 8-5 19-8 28-8 23 0 41 15 56 27 4 3 8 6 11 9 14 9 28 19 40 29 7 5 14 10 20 14 36 26 72 54 106 80l10 8c5 3 10 7 14 10 4 3 8 6 11 8 26 18 59 41 59 85 0 43-27 62-58 85z m-27-130c-4-3-7-6-11-9-5-3-10-7-14-10l-10-8c-35-26-70-53-106-79-6-5-13-10-20-15-12-9-25-19-38-28-5-3-10-7-14-11-9-7-21-17-28-17 0 0-5 1-6 2-10 5-19 16-19 24v102c0 12-7 23-18 24-25 2-48 3-71 3-201 0-310-83-367-153 21 102 76 177 165 225 95 52 203 58 245 58 12 0 19 1 19 1 1 0 1 3 2 3h7c13 0 17 6 17 19v109c0 11 13 25 22 26 10 1 23-9 34-18 4-3 8-6 12-8 22-16 45-34 66-50 19-15 39-30 59-45 19-14 37-27 55-41l19-14c33-24 39-31 39-45 1-15-11-26-39-45z m-202-407c58 0 95 41 95 103v61c0 14-10 24-23 24-12 0-22-10-22-24v-61c0-35-17-55-49-55h-591c-33 0-65 21-65 55v400c0 33 32 64 65 64h225c12 0 22 11 22 25 0 13-10 24-22 24h-225c-58 0-111-53-111-113v-400c0-59 53-103 111-103h590z" horiz-adv-x="1000" />

<glyph glyph-name="distribuciones" unicode="&#xe828;" d="M994 530c0 112-91 203-203 203-2 0-666 0-666 0 0 0-1 0-1 0-1 0-1 0-2 0-64 0-116-52-116-116 0-23 7-44 18-62 0 0 0 0 0 0l312-524c26-63 88-107 160-107 57 0 107 27 138 69 1 0 1 0 1 1 0 0 302 392 319 415 25 34 40 76 40 121z m-58 0c0-80-65-144-144-144s-145 65-145 144 65 145 145 145 144-65 144-145z m-347 0c0-111 91-202 203-202 9 0 19 0 28 2l-153-200c-15 80-86 142-171 142-76 0-142-51-165-120l-208 349c63 1 115 53 115 116 0 21-6 41-16 58h428c-38-37-61-88-61-145z m-467 145c32 0 58-26 58-58s-26-58-58-58-58 26-58 58 26 58 58 58z m374-693c-64 0-116 52-116 116s52 116 116 116 116-52 116-116-52-116-116-116z m0 145c-16 0-29-13-29-29 0-16 13-29 29-29 16 0 29 13 29 29 0 16-13 29-29 29z m209 403c0-48 39-87 87-87s87 39 87 87-39 87-87 87-87-39-87-87z m116 0c0-16-14-29-29-29s-29 14-29 29 13 29 29 29 29-13 29-29z" horiz-adv-x="1000" />

<glyph glyph-name="eliminar-cliente-a" unicode="&#xe829;" d="M25 98c9-6 18-8 27-8 16 0 31 7 40 21 78 116 208 185 348 185 57 0 120-17 120-17 22-5 100-25 129-11 4 1 13 6 26 7 14 2 23-3 25 0 3 6-18 23-19 24-19 15-51 38-107 64 61 49 100 125 100 210 0 150-122 272-272 272s-272-122-272-272c0-84 39-160 99-210-104-36-194-105-257-199-14-22-9-52 13-66z m417 651c97 0 176-79 176-176s-79-175-176-175-176 78-176 175 79 176 176 176z m292-360c-139 0-253-115-253-254s114-253 253-253 254 114 254 253-114 254-254 254z m127-279h-253v51h253v-51z" horiz-adv-x="1000" />

<glyph glyph-name="disponible" unicode="&#xe82a;" d="M843 525c-11 10-28 10-38 0l-166-167-71 70c-9 9-24 9-33 0l-32-32c-9-9-9-24 0-33l90-89 27-28 3-2c9-10 24-10 33 0l32 31c0 1 0 2 1 2l182 182c10 11 10 27 0 38l-28 28z m-154 152c-113 0-211-65-259-159-19 1-38 2-56 2-50 0-101-4-154-12-32-5-55-22-68-52-10-20-20-41-30-60l-7-15c-3 1-5 3-6 6-3 4-6 8-13 8-26 0-45-4-61-12-9-4-14-10-14-16-1-6 3-12 10-18 7-5 13-9 20-12 2-1 4-3 6-4-13-14-25-28-28-48-6-38-9-71-7-104 1-10 2-20 3-30 3-35 5-70 4-106 0-7 1-12 4-16 4-4 10-6 18-6l0 0c19 1 39 1 58 0h3c9 0 19 0 28 0 15 0 19 1 23 3l3 2 1 3c2 3 2 7 2 21 0 8 1 10 10 11 66 4 132 7 195 7s128-2 195-7c8-1 9-3 9-11 0-14 0-18 3-22l1-3 3-1c4-2 7-2 22-2 10 0 19 0 29 0h1c10 0 20 0 30 0 12 0 21 0 30 0 8 0 14 2 18 6 3 3 4 9 4 16-1 17 0 34 0 51 146 15 261 139 261 289 0 160-131 291-291 291z m9-632h0c-9 0-19 0-30 0-10 0-20 0-30 0h-2c-9 0-19 0-28 0-2 0-5 0-8 0 0 3 0 6 0 7 0 25-16 31-29 32-67 5-134 8-197 8s-129-3-196-8c-14-1-30-7-30-32 0-1 0-4 0-7-2 0-5 0-8 0-9 0-18 0-28 0h-2c-20 0-40 1-59 0-1 0-1 0-1 0 2 37-2 73-4 108-1 10-2 20-3 30-2 31 1 62 7 99 2 15 12 25 24 39l17 18-21 11c-3 2-6 4-9 6-6 3-12 6-16 9 12 6 27 9 46 9 3-4 8-10 17-14l16-6 17 33c10 20 20 40 30 61 10 24 27 35 52 39 52 8 102 12 151 13 15 0 31-1 46-2-14-34-22-72-22-112 0-1 0-4 0-5-160 5-240-28-245-30-3-2-5-6-3-10 1-2 3-4 6-4 1 0 2 0 3 0 0 1 37 16 108 24 33 4 77 6 131 5 7-98 62-183 142-230 15-9 31-17 48-23 31-12 65-18 101-18 3 0 6 0 9 0 0-17 0-33 0-50z m23 72c-7-1-14-2-21-2-4 0-7 0-11 0-12 0-24 1-36 3-15 2-30 5-44 9-16 5-31 11-45 19-5 2-10 5-15 8-72 44-123 122-129 211-1 5-1 10-1 14 0 2 0 5 0 7 0 39 8 76 23 110 3 7 7 14 10 21 46 83 136 140 238 140 149 0 270-122 270-271 0-139-105-254-239-269z m-311 120l-24 44h-34l-24-44c-3-7-3-15 0-21l24-45h34l24 45c4 7 4 14 0 21z m-42-39l-16 28 16 29h3l15-29-15-28h-3z m-175-11c5 0 9 1 10 3 1 2 1 5 0 9-3 8-9 21-25 23-15 3-31 4-47 6-12 1-25 2-38 4-1 0-1 0-2 0-3 0-4-1-4-1 0 0-1-1-1-7l0 0c1-23 15-37 38-37h69z m15-57c-13 0-27 0-40 0-14 0-28 0-41 0-8 0-13 2-13 10-1 8 4 12 13 12 27 0 54 0 81 0 7 0 14-3 14-11 0-8-6-11-14-11z" horiz-adv-x="1000" />

<glyph glyph-name="compartir" unicode="&#xe82b;" d="M777 251c-60 0-116-28-152-76l-220 115c7 19 10 40 10 60 0 20-3 41-10 60l220 115c36-48 92-76 152-76 106 0 193 86 193 193 0 106-86 192-193 192s-192-86-192-192c0-21 3-41 9-60l-219-115c-36 48-92 76-153 76-106 0-192-87-192-193 0-106 86-192 193-192 60 0 116 28 153 75l219-115c-7-19-10-39-10-60 0-106 86-192 193-192s192 86 192 192c0 107-86 193-193 193z m0 262c-70 0-128 58-128 129 0 34 14 66 38 90 24 25 56 38 90 38 71 0 129-58 129-128 0-71-58-129-129-129z m0-583c-70 0-128 58-128 128 0 71 58 129 128 129s129-58 129-129c0-70-58-128-129-128z m-683 420c0 71 58 128 129 128s128-57 128-128c0-71-58-128-128-128s-129 57-129 128z" horiz-adv-x="1000" />

<glyph glyph-name="datostelemarketing" unicode="&#xe82c;" d="M828 373h-267l-15 49h282c13 0 24-11 24-24v0c0-14-11-25-24-25z m-30 171c13 0 24-11 24-24 0-14-11-24-24-24h-275l-15 48h290z m-37 122c13 0 24-11 24-24 0-13-11-24-24-24h-276l-16 48h292z m6-572c18 18 21 52 2 72l-98 98c-20 19-52 19-72-1l-50-50c-3 2-6 4-9 6-32 17-74 41-119 86-45 44-69 87-86 118-2 4-4 7-6 10l34 33 16 16c20 21 20 53 1 72l-98 98c-19 20-52 20-72-1s-27-28-27-28c-9-12-17-26-23-41-5-14-8-27-10-40-13-108 36-206 169-339 184-184 333-170 339-169 14 2 27 5 41 10 14 6 32 17 40 23 7 6 28 27 28 27z" horiz-adv-x="1000" />

<glyph glyph-name="conectividad" unicode="&#xe82d;" d="M988 290c0 11-2 21-5 32-1 3-2 6-4 9-5 14-13 26-23 36-4 4-11 4-15 0 0 0 0-1-1-1 0-1 0-1 0-1 0 0 0-1-1-1 0 0 0 0 0-1 0 0 0 0 0-1 0 0 0 0 0 0 0-1 0-1-1-2 0 0 0 0 0 0 0-1 0-1 1-2 0 0 0 0 0 0 0-1 0-1 0-2 0 0 0 0 0 0 0 0 0-1 1-1 0 0 0 0 0 0 0-1 0-1 1-2 8-8 15-18 20-29 4-11 6-22 6-34 0-13-2-24-6-35-5-11-12-21-20-29-4-4-4-10 0-14 4-4 10-4 14 0 10 10 18 22 24 36 5 11 8 24 8 37 0 0 0 0 0 0 1 1 1 3 1 5 0 0 0 0 0 0 0 0 0 0 0 0z m-40-5c0 0 0 0 0 0 0 0 0 0 0 0 0 2 0 3 0 5 0 9-2 18-6 26-3 9-8 16-15 23-4 4-10 4-14 0 0-1 0-1-1-2 0 0 0 0 0 0 0-1-1-1-1-1 0-1 0-1 0-1 0 0 0-1 0-1 0 0-1-1-1-1 0 0 0-1 0-1 0 0 0 0 0-1 0 0 0-1 0-1 0 0 0 0 0 0 1-1 1-1 1-2 0 0 0 0 0-1 0 0 0 0 0 0 0 0 0 0 0 0 1-1 1-2 2-3 5-4 8-10 11-16 2-6 3-12 3-19 0-7-1-13-3-19-3-6-7-12-11-16-4-4-4-10 0-14 4-4 10-4 14 0 6 6 12 14 15 22 3 8 5 15 6 23z m-38 2c0 1 0 2 0 3 0 10-9 19-20 19-11 0-20-9-20-19 0-1 0-2 1-3 0 0 0 0 0 0 0-1 0-2 0-2 0 0 0 0 0 0 0 0 0 0 0 0 2-9 10-15 19-15 10 0 18 6 20 15 0 0 0 0 0 0 0 0 0 0 0 0 0 1 0 1 0 2 0 0 0 0 0 0z m-409 374c-11 0-22-2-32-5-4-1-7-2-10-3-14-6-26-14-36-24-4-4-4-10 0-14 0-1 1-1 1-1 1-1 1-1 1-1 0 0 1 0 1 0 0 0 1-1 1-1 0 0 1 0 1 0 0 0 0 0 1 0 0 0 0 0 1 0 0 0 0 0 0 0 1 0 1 0 2 0 0 0 0 0 0 0 1 0 1 0 2 0 0 0 0 0 0 0 0 1 1 1 1 1 0 0 0 0 0 0 1 0 2 1 2 1 8 9 18 15 29 20 11 4 22 7 35 7 12 0 23-3 34-7 11-5 21-11 29-20 4-4 10-4 14 0 4 4 4 10 0 14-10 11-22 19-35 24-12 5-24 8-37 8 0 0 0 0 0 0-2 1-4 1-5 1 0 0 0 0 0 0 0 0 0 0 0 0z m4-40c1 0 1 0 0 0 0 0 0 0 0 0-2 0-3 0-5 0-9 0-18-2-26-5-9-4-16-9-23-15-4-4-4-11 0-14 1-1 1-1 2-2 0 0 0 0 0 0 1 0 1 0 1-1 1 0 1 0 1 0 0 0 1 0 1 0 0 0 0 0 1 0 0 0 0 0 1-1 0 0 0 0 0 0 1 0 2 0 2 1 0 0 0 0 0 0 1 0 1 0 2 0 0 0 0 0 1 0 0 0 0 0 0 1 0 0 0 0 0 0 1 0 2 1 2 1 5 5 11 9 17 11 6 2 12 4 19 4 7 0 13-2 19-4 6-3 11-6 16-11 4-4 10-4 14 0 4 4 4 10 0 14-6 7-14 12-22 15-8 3-15 5-23 6z m-2-38c-1 0-2 0-2 0-11 0-20-9-20-19 0-11 9-20 20-20 0 0 1 0 2 0 0 0 0 0 1 0 0 0 1 0 1 0 0 0 0 0 1 0 0 0 0 0 0 0 8 3 15 10 15 20 0 9-7 17-15 19 0 0 0 0 0 0-1 0-1 0-1 0 0 0-1 0-1 0-1 0-1 0-1 0z m-490-293c0-12 1-22 4-33 1-3 2-6 4-9 5-14 13-26 24-36 3-4 10-4 14 0 0 0 0 1 1 1 0 1 0 1 0 1 0 0 1 1 1 1 0 0 0 0 0 1 0 0 0 0 0 1 0 0 1 0 1 0 0 1 0 1 0 2 0 0 0 0 0 0 0 1 0 1 0 2 0 0 0 0 0 0-1 1-1 1-1 2 0 0 0 0 0 0 0 0 0 1 0 1 0 0 0 0 0 0-1 1-1 1-2 2-8 8-15 18-19 29-5 11-7 22-7 35 0 12 2 23 7 34 4 11 11 21 19 29 4 4 4 10 0 14-4 4-10 4-14 0-10-10-18-22-24-36-5-11-7-24-8-37 0 0 0 0 0 0 0-1 0-3 0-4 0 0 0 0 0 0 0 0 0 0 0 0z m40 4c0 0 0 0 0 0 0 0 0 0 0 0 0-2-1-3-1-5 0-9 2-18 6-26 3-9 8-16 15-23 4-4 10-4 14 0 0 0 1 1 1 1 0 1 0 1 0 1 1 0 1 1 1 1 0 0 0 1 0 1 0 0 0 1 1 1 0 0 0 0 0 1 0 0 0 0 0 1 0 0 0 0 0 0 0 1 0 1 0 2 0 0 0 0 0 0 0 1 0 1-1 2 0 0 0 0 0 0 0 1 0 1 0 1 0 0 0 0 0 0-1 1-1 2-2 2-5 5-8 11-11 17-2 5-3 12-3 19 0 7 1 13 3 19 3 6 7 11 11 16 4 4 4 10 0 14-4 4-10 4-14 0-6-6-11-14-15-23-3-7-5-14-5-22z m37-2c0-1 0-2 0-3 0-11 9-20 20-20 11 0 20 9 20 20 0 1 0 2 0 3 0 0 0 0-1 0 0 1 0 1 0 2 0 0 0 0 0 0 0 0 0 0 0 0-2 9-10 15-19 15s-18-6-20-15c0 0 0 0 0 0 0 0 0 0 0 0 0-1 0-1 0-2 0 0 0 0 0 0z m745 1c-2 18-14 31-26 44l0 0c-4 4-3 11 1 13l1 0c3 2 6 4 9 6 6 3 12 6 18 11 0 0 0 0 0 0 6 4 4 13-2 16 0 0 0 0 0 0-15 7-29 11-53 11-1 0-4 0-8-4-2-4-5-8-12-11l0 0c-4-2-9 0-11 4l-8 17c-11 20-21 41-30 62-12 26-32 40-61 45-52 8-104 12-153 12-48 0-100-4-151-12-30-4-49-19-61-45-9-21-20-41-30-61l-9-18c-2-4-6-6-10-4l-1 0c-6 3-9 8-12 11-3 4-6 4-8 4-24 0-38-3-53-11 0 0 0 0 0 0-6-3-7-11-2-16 0 0 1 0 1 0 5-4 11-8 17-11 3-2 6-4 9-5 0 0 1 0 1 0 4-3 5-9 1-13l0 0c-12-15-24-27-26-45-6-37-9-69-7-101 1-11 2-20 2-30 3-35 6-72 4-107l0 0c0-9 7-16 16-16h82c12 0 22 10 22 22l0 0c0 10 2 20 19 21 67 5 133 8 196 8 64 0 130-3 197-8 17-1 19-11 19-21 0 0 0 0 0 0 0-12 10-22 22-22h83c8 0 15 7 15 16-2 35 1 71 4 106 0 10 1 20 2 30 3 33-1 64-7 102z m-566 85l9 18c13 25 25 49 38 72 7 11 18 18 34 21 52 7 102 10 151 10 49 0 100-3 151-10 16-3 28-9 34-21 13-23 25-46 38-71l10-19c3-5-1-12-8-12l0 0c-76 6-150 8-224 8s-148-3-225-8l0 0c-7-1-11 6-8 12z m-35-187c-24 0-39 15-40 38-1 10 2 14 11 14h3c0 0 0 0 1 0 24-3 48-4 72-8 14-2 23-12 28-24 4-13-2-20-16-20h-59z m82-55c-12 0-25 0-38 0-14 0-28 0-41 0-7 0-12 2-12 10-1 8 4 12 12 12 27 0 53 0 80 0 7 0 13-3 13-11 0-8-6-11-14-11z m215 79l-19-34c-1-3-4-5-7-5h-4-5c-3 0-6 2-7 5l-18 34c-2 2-2 6 0 8l18 34c1 2 4 4 7 4h5 4c3 0 6-2 7-4l19-34c1-3 1-6 0-8z m249-69c-1-8-6-10-13-10-13 0-27 0-40 0-13 0-26 0-39 0-7 0-14 3-13 11 0 7 6 11 13 11 26 0 53 0 79 0 8 0 13-4 13-12z m-69 44c-14 0-20 8-15 20 4 13 13 23 27 25 24 4 49 5 73 8 0 0 0 0 1 0h2c9 1 12-4 12-14-1-23-17-39-40-39h-60z" horiz-adv-x="1000" />

<glyph glyph-name="calendariomes" unicode="&#xe82e;" d="M936 562c0 59-48 107-108 107h-35v24c0 24-19 43-43 43h-37c-23 0-43-19-43-43v-24h-340v24c0 24-20 43-43 43h-37c-24 0-43-19-43-43v-24h-35c-59 0-107-48-108-107h0v0-51-2-318-109c0-65 48-117 108-117h656c60 0 108 52 108 117v109 317 3 50l0 1 0 0z m-33-54v-317-109c0-47-34-85-75-85h-656c-41 0-75 38-75 85v109 317 3h806v-3z m-705-146v-16-85-16-85-16-101h9 138 16 131 16 132 8 7v15 86h132 15v16 85 10 6 85 6 10 101h-9-138-15-132-16-131-7-9v-15-86h-132-15z" horiz-adv-x="1000" />

<glyph glyph-name="editar" unicode="&#xe82f;" d="M813 477l-193 193-553-560v-193h193l553 560z m107 180l-113 113c-20 20-54 20-74 0l-93-87 193-193 87 93c20 27 20 54 0 74z" horiz-adv-x="1000" />

<glyph glyph-name="cochelupa" unicode="&#xe830;" d="M685 641c-72 0-138-26-190-68l-227 226c-12 12-32 12-44 0h0c-12-12-12-32 0-44l227-227c-22-29-40-62-51-98-5 0-10 0-14 0-53 0-107-4-163-13-32-4-52-20-66-48-9-22-21-45-32-66l-13-26-8 3c-6 3-10 8-13 11-3 4-3 5-5 5-26 0-44-4-60-12-6-3-9-6-9-8s2-5 7-9c6-5 13-8 19-12 4-2 7-4 10-6l10-6-8-8c-14-15-26-28-28-47-7-41-10-75-8-109 1-11 2-22 3-33 3-37 6-76 4-114 0-3 0-8 2-9 1-2 5-3 10-3 22 0 43 0 64 0 11 0 22 0 33 0 8 0 17 0 19 1 0 2 0 12 0 18 0 11 3 22 21 23 72 5 143 8 210 8 68 0 139-3 211-8 18-1 20-12 20-23 0-6 0-16 2-18 1-1 10-1 18-1 11 0 22 0 32 0 11 0 22 0 32 0 11 0 22 0 33 0 5 0 8 0 10 2 2 2 2 6 2 10-2 38 1 77 4 114 0 2 0 4 0 6 134 29 234 149 234 291 0 164-134 298-298 298z m-538-343c14 27 27 52 41 77 7 12 19 19 37 22 55 7 109 11 161 11 3 0 5 0 8 0-5-21-7-43-7-65 0-24 3-47 8-69-3 0-6 0-8 0-81 0-159-3-241-9l-16-1 17 34z m-90-179c-1 11 2 15 12 15 1 0 2 0 3 0 26-3 53-4 79-8 14-3 24-13 29-27 5-13-2-21-16-21-12 0-23 0-34 0-10 0-21 0-31 0-25 0-41 16-42 41z m131-100c-14 0-27 0-41 0-15 0-30 0-44 0-7 0-12 3-13 11-1 9 5 13 13 13 29 0 57 0 85 0 8 0 14-4 14-12 1-9-6-12-14-12z m230 84l-22-41h-10-10l-22 41c-2 3-2 6 0 9l22 41h10 10l22-41c2-3 2-6 0-9z m267-73c-1-8-6-11-14-11-14 0-29 0-43 0-14 0-27 0-42 0-8 0-14 3-13 12 0 8 6 11 13 11 29 0 57 0 85 0 9 1 14-3 14-12z m0 47c-146 0-265 120-265 266s119 265 265 265 265-119 265-265-119-266-265-266z m0 492c-10 0-18-8-18-18s8-17 18-17c105 0 191-86 191-191 0-10 8-18 17-18s18 8 18 18c0 124-102 226-226 226z" horiz-adv-x="1000" />

<glyph glyph-name="editar1" unicode="&#xe831;" d="M331 137l-42 0v43l273 276-37 37-283-286c-3-4-5-8-5-13v-90c0-5 2-10 5-14 4-3 8-5 13-5h90c5 0 10 2 14 5l283 286-37 37-274-276z m423 402l-67 66c-6 6-15 10-23 10s-18-3-24-10l-33-31 115-116 32 33c13 14 13 34 0 48z m-254 304c-272 0-493-220-493-493s221-493 493-493c273 0 493 221 493 493s-220 493-493 493z m0-916c-234 0-423 189-423 423s189 423 423 423c234 0 423-189 423-423s-189-423-423-423z" horiz-adv-x="1000" />

<glyph glyph-name="calendariosemana" unicode="&#xe832;" d="M936 562c0 59-48 107-108 107h-35v24c0 24-19 43-43 43h-37c-23 0-43-19-43-43v-24h-340v24c0 24-20 43-43 43h-37c-24 0-43-19-43-43v-24h-35c-59 0-107-48-108-107h0v0-51-2-318-109c0-65 48-117 108-117h656c60 0 108 52 108 117v109 317 3 50l0 1 0 0z m-33-54v-317-109c0-47-34-85-75-85h-656c-41 0-75 38-75 85v109 317 3h806v-3z m-542-465h131 16 132 15 147v101 16 85 10 6 85 6 10 101h-147-15-132-16-131-16-147v-101-16-85-16-85-16-101h147 16z m-16 117h-132v85h132v-85z m147-102h-131v86h131v-86z m0 102h-131v85h131v-85z m148-102h-132v86h132v-86z m0 102h-132v85h132v-85z m147-102h-132v86h132v-86z m0 102h-132v85h132v-85z m-132 288h132v-86h-132v86z m-147 0h132v-86h-132v86z m-147 0h131v-86h-131v86z m-148 0h132v-86h-132v86z m0-304h132v-86h-132v86z" horiz-adv-x="1000" />

<glyph glyph-name="calendriodia" unicode="&#xe833;" d="M936 562c0 59-48 107-108 107h-35v24c0 24-19 43-43 43h-37c-23 0-43-19-43-43v-24h-340v24c0 24-20 43-43 43h-37c-24 0-43-19-43-43v-24h-35c-59 0-107-48-108-107h0v0-51-2-318-109c0-65 48-117 108-117h656c60 0 108 52 108 117v109 317 3 50l0 1 0 0z m-33-54v-317-109c0-47-34-85-75-85h-656c-41 0-75 38-75 85v109 317 3h806v-3z m-542-465h131 16 132 15 147v101 16 85 16 85 16 101h-147-15-132-16-131-16-147v-101-16-85-16-85-16-101h147 16z m294 405h132v-86h-132v86z m0-102h132v-85h-132v85z m0-101h132v-85h-132v85z m0-101h132v-86h-132v86z m-147 304h132v-86h-132v86z m0-102h132v-85h-132v85z m0-101h132v-85h-132v85z m0-101h132v-86h-132v86z m-147 304h131v-86h-131v86z m0-102l0 0 0-85h0v85z m0-101h131v-85h-131v85z m0-101h131v-86h-131v86z m-148 304h132v-86h-132v86z m0-102h132v-85h-132v85z m0-101h132v-85h-132v85z m0-101h132v-86h-132v86z" horiz-adv-x="1000" />

<glyph glyph-name="disponible1" unicode="&#xe834;" d="M815 523c-9 8-23 8-32 0l-139-139-58 58c-8 8-21 8-28 0l-27-26c-7-8-7-20 0-28l75-74 23-24 2-2c8-7 20-7 28 0l26 27c1 0 1 1 2 1l151 152c9 9 9 23 0 32l-23 23z m168-110c0 164-134 298-298 298-134 0-248-89-285-212-5 0-10 1-14 1-53 0-107-4-163-13-32-5-52-20-66-49-9-22-21-44-32-65l-13-26-8 3c-6 3-10 7-13 11-3 4-3 4-5 4-26 0-44-3-60-11-6-3-9-6-9-8s2-5 7-10c6-4 13-8 19-12 4-1 7-3 10-5l10-6-8-8c-14-15-26-29-28-48-7-40-10-74-8-109 1-11 2-21 3-32 3-37 6-76 4-114 0-4 0-8 2-10 1-1 5-2 10-2 22 0 43 0 64 0 11 0 22 0 33 0 8 0 17 0 19 1 0 1 0 11 0 18 0 11 3 22 21 23 72 5 143 8 210 8 68 0 139-3 211-8 18-1 20-12 20-23 0-7 0-16 2-18 1-1 10-1 18-1 11 0 22 0 32 0 11 0 22 0 32 0 11 0 22 0 33-1 5 0 8 1 10 3 2 2 2 6 2 9-2 39 1 77 4 115 0 2 0 4 0 6 0 0 0 0 0 0 134 29 234 149 234 291z m-836-45c14 26 27 52 41 76 7 13 19 20 37 22 55 8 109 12 161 12 3 0 5 0 8 0 0 0 0 0 0 0-5-21-7-43-7-65 0-24 3-47 8-69 0 0 0 0 0 0-3 0-6 0-8 0-81 0-159-3-241-9l-16-1 17 34z m-90-179c-1 10 2 15 12 15 1 0 2 0 3 0 26-4 53-5 79-9 14-2 24-12 29-26 5-14-2-22-16-22-12 0-23 0-34 0-10 0-21 0-31 0-25 1-41 17-42 42z m131-100c-14 0-27 0-41 0-15 0-30 0-44 0-7 0-12 2-13 11-1 8 5 12 13 12 29 0 57 0 85 0 8 0 14-3 14-11 1-9-6-12-14-12z m230 84l-22-41h-10-10l-22 41c-2 3-2 6 0 9l22 41h10 10l22-41c2-3 2-7 0-9z m267-73c-1-9-6-11-14-11-14 0-29 0-43 0-14 0-27 0-42 0-8 0-14 3-13 12 0 8 6 11 13 11 29 0 57 0 85 0 9 0 14-4 14-12z m0 47c-146 0-265 119-265 266s119 265 265 265c146 0 265-119 265-265s-119-266-265-266z" horiz-adv-x="1000" />

<glyph glyph-name="desdeexpo" unicode="&#xe835;" d="M196 486c-20 0-36-16-36-36 0-20 16-36 36-36h227c20 0 37 16 37 36 0 20-17 36-37 36h-227z m80-499h-121c-41 0-73 33-73 73v640c0 40 32 72 73 72h446c40 0 73-32 73-72v-224c0-20 16-36 36-36 20 0 37 16 37 36v224c0 79-66 145-146 145h-446c-81 0-146-66-146-145v-640c0-80 66-145 146-145h121c20 0 36 16 36 36 0 19-16 36-36 36z m289 640h-374c-20 0-36-16-36-37s16-36 36-36h375c20 0 36 16 36 36s-17 37-37 37z m-80-747c-19 0-35 16-35 36v280l363 244c16 11 39 6 50-10 11-16 6-39-10-50l-334-223v-242c1-19-15-35-34-35z m294 318h-68l-65-122c-7-10-7-23 0-33l65-121h68l65 121c7 10 7 23 0 33l-65 122z m10-138l-43-81-44 81 44 81 43-81z" horiz-adv-x="919" />

<glyph glyph-name="desdelead" unicode="&#xe836;" d="M196 486c-20 0-36-16-36-36 0-20 16-36 36-36h227c20 0 37 16 37 36 0 20-17 36-37 36h-227z m80-499h-121c-41 0-73 33-73 73v640c0 40 32 72 73 72h446c40 0 73-32 73-72v-224c0-20 16-36 36-36 20 0 37 16 37 36v224c0 79-66 145-146 145h-446c-81 0-146-66-146-145v-640c0-80 66-145 146-145h121c20 0 36 16 36 36 0 19-16 36-36 36z m289 640h-374c-20 0-36-16-36-37s16-36 36-36h375c20 0 36 16 36 36s-17 37-37 37z m236-534l108 78c8 6 12 15 12 26-1 10-6 19-15 23l-362 194c-13 7-28 7-41-1-13-8-20-22-20-37v-439c0-11 6-20 15-25 9-5 21-4 29 2l121 83 69-113c4-7 10-11 18-13 2 0 4-1 6-1 6 0 12 2 16 5l104 68c13 8 17 26 9 39l-69 111z m-50-154l-70 115c-4 7-11 11-18 13-2 0-4 1-6 1-6 0-11-2-17-5l-100-70v358l298-161-91-66c-13-9-16-25-9-39l69-111-56-35z" horiz-adv-x="929" />

<glyph glyph-name="consiguepuntos" unicode="&#xe837;" d="M520 151c54 0 98 44 98 97s-44 98-98 98c-54 0-98-44-98-98s44-97 98-97z m-213 269c2 0 3 0 5 0 3 1 5 3 6 6 1 3 1 6 0 9l-32 62 33 60c1 4 1 8-1 11-3 4-6 5-10 4l-68-11-48 50c-3 3-7 4-11 3-4-1-6-5-7-9l-10-68-62-30c-4-2-6-5-6-9 0-4 2-8 5-9l62-32 10-68c0-3 2-6 4-7 3-2 6-2 9-1 2 0 3 1 4 2l49 49 68-12z m16 265l80-40 12-89c1-4 3-8 7-10 3-2 7-2 11-1 2 1 4 2 5 3l63 64 88-16c2 0 4 0 6 0 4 1 7 4 9 8 1 3 1 8-1 11l-41 80 43 79c1 4 1 10-2 14-3 4-8 6-13 5l-88-14-62 65c-3 3-9 5-14 3-4-1-8-5-9-11l-13-88-81-39c-4-3-7-7-7-12 0-5 3-10 7-12z m524-128l33 61c1 3 1 7-1 10-2 4-6 5-10 4l-68-10-48 49c-3 3-7 4-11 3-3-1-6-4-7-8l-10-69-62-30c-4-2-6-5-6-9 0-4 2-7 6-9l61-31 10-69c0-3 2-6 5-7 2-2 5-2 8-1 2 0 3 1 4 2l49 49 68-12c2 0 3 0 5 0 3 1 5 3 6 6 1 3 1 6 0 9l-32 62z m-577-470l0 0c4-16 12-31 23-45l1 0c0-1 1-2 2-3 1-1 1-2 2-2 42-53 69-118 77-187h290c8 68 35 133 77 186 1 1 2 2 3 3l0 0c1 1 2 2 3 3 10 14 18 29 23 45l60 222c3 14 1 28-8 39-8 12-21 19-35 19-21 1-41-13-47-35l-37-137c-10-38-44-64-83-64h-201c-39 0-73 26-83 64l-37 136c-6 21-26 36-48 36-14 0-26-6-35-17-9-10-11-25-8-38l61-225z" horiz-adv-x="1000" />

<glyph glyph-name="ficha-activa2" unicode="&#xe838;" d="M259 657c-29 0-53-17-53-38s24-37 53-37h334c29 0 53 17 53 37s-24 38-53 38h-334z m84-715h-126c-42 0-76 34-76 76v664c0 42 34 76 76 76h464c42 0 75-34 75-76v-232c0-21 17-38 38-38s38 17 38 38v232c0 83-68 151-151 151h-464c-84 0-151-68-151-151v-664c0-83 67-151 151-151h126c21 0 38 17 38 38s-17 37-38 37z m490 488c-10 4-18 2-26-6l-48-47c-26 25-57 44-91 58-34 13-69 20-105 20-39 0-75-7-110-23-36-15-66-35-91-60-26-26-46-56-61-91-15-35-23-72-23-110 0-39 8-76 23-111 15-35 35-65 61-91 25-25 55-45 91-60 35-15 71-23 110-23 42 0 83 9 121 27 38 18 71 43 98 75 2 3 3 6 3 9-1 3-2 6-4 8l-51 51c-2 2-6 3-9 3-4-1-7-2-8-4-18-24-40-42-67-55-26-13-54-19-83-19-26 0-50 5-73 15-24 10-44 23-61 40-17 17-31 38-41 61-10 23-15 48-15 73 0 26 5 51 15 74 10 23 24 43 41 60 17 17 37 31 61 41 23 10 47 15 73 15 50 0 93-17 129-51l-51-51c-8-7-9-16-5-26 4-9 11-14 22-14h166c6 0 12 2 16 7 5 4 7 10 7 16v166c1 11-4 18-14 23z" horiz-adv-x="1000" />

<glyph glyph-name="ficha-cliente-a" unicode="&#xe839;" d="M247 467c-21 0-39-17-39-39s18-39 39-39h244c22 0 40 18 40 39s-18 39-40 39h-244z m92-539h-131c-43 0-78 35-78 78v688c0 43 35 78 78 78h481c43 0 78-35 78-78v-240c0-22 17-39 39-39s39 17 39 39v240c0 86-70 156-156 156h-481c-86 0-156-70-156-156v-688c0-86 70-156 156-156h131c21 0 39 18 39 39s-18 39-39 39z m310 688h-402c-21 0-39-18-39-39s18-39 39-39h402c22 0 40 17 40 39s-18 39-40 39z m-259-719c5-4 12-6 19-6 11 0 22 6 28 16 56 88 148 140 248 140 99 0 191-52 246-139 11-17 32-21 48-10 16 11 20 34 9 50-44 70-107 121-180 148 44 38 71 95 71 159 0 112-86 204-193 204s-194-92-194-204c0-64 28-120 71-158-74-27-138-79-183-150-10-16-6-39 10-50z m296 490c69 0 125-60 125-132s-56-132-125-132-125 59-125 132 56 132 125 132z" horiz-adv-x="1000" />

<glyph glyph-name="encender" unicode="&#xe83a;" d="M584 721v48c0 33-26 59-59 59s-59-26-59-59v-48c-211-29-374-210-374-429 0-239 194-433 433-433s433 194 433 433c0 219-163 400-374 429z m-59-752c-178 0-323 145-323 323 0 159 114 290 264 318v-340c0-32 26-58 59-58s59 26 59 58v340c150-28 264-159 264-318 0-178-144-323-323-323z" horiz-adv-x="1000" />

<glyph glyph-name="escobillas" unicode="&#xe83b;" d="M987 206c-12 42-24 83-36 125l-25 89c-14 48-28 97-42 146-10 38-44 63-83 63h-594c-39 0-73-25-84-63l-66-233c-12-43-24-85-36-127-13-46 14-95 60-108 155-44 293-66 423-66 129 0 268 22 423 66 46 13 73 62 60 108z m-76-53c-98-28-189-47-275-56l131 131c12 12 12 29 0 41-11 11-29 11-40 0l-177-178c-1 0-1-1-1-1-15-1-30-1-45-1-60 0-123 5-188 15l142 142c11 11 11 29 0 40-11 11-29 11-40 0l-170-170c-49 9-99 22-151 37-16 4-26 21-21 37 12 42 24 84 36 127l66 233c4 13 15 22 29 22h268v-57h-45c-16 0-29-13-29-29s13-29 29-29h148c16 0 28 13 28 29s-12 29-28 29h-46v57h269c14 0 25-9 29-22 13-49 27-98 41-146l26-89c11-42 23-84 35-125 5-16-5-32-21-37z" horiz-adv-x="1000" />

<glyph glyph-name="ficha-marketing" unicode="&#xe83c;" d="M331-66h-129c-43 0-77 34-77 77v681c0 42 34 77 77 77h475c43 0 78-35 78-77v-238c0-21 17-39 38-39s39 18 39 39v238c0 85-69 154-155 154h-475c-85 0-155-69-155-154v-681c0-85 70-155 155-155h129c22 0 39 18 39 39s-17 39-39 39z m220 405l49 52c11-6 24-10 37-10 43-1 77 33 78 76s-34 77-77 78c-42 0-77-34-77-77-1-15 4-29 11-41l-49-51c10-8 19-17 28-27z m-4-138l115-70c-2-7-3-14-3-21-1-43 34-78 76-78 43 0 78 34 78 76 0 43-34 78-76 78-22 0-41-8-55-22l-115 70c-17 9-34-26-20-33z m-40-201c0 33-20 62-50 73l11 96c-1 0-2 0-3 0-12 0-24 1-36 4l-10-96c-37-5-66-37-66-75 0-43 34-78 76-78 43 0 78 34 78 76z m-236 206l94 21c-4 12-7 25-8 38l-94-21c-13 25-38 42-68 42-42 1-77-34-77-76-1-43 33-78 76-78 42 0 76 33 77 74z m177 179l-39 120c21 13 35 37 36 64 0 42-34 77-77 77-42 1-77-33-78-76 0-43 34-77 77-78 2 0 3 1 5 1l39-120c12 5 24 9 37 12z" horiz-adv-x="1000" />

<glyph glyph-name="ficha-eliminar-a" unicode="&#xe83d;" d="M253 465c-22 0-39-17-39-39s17-39 39-39h244c22 0 39 18 39 39s-17 39-39 39h-244z m86-537h-131c-43 0-78 35-78 78v688c0 43 35 78 78 78h481c43 0 78-35 78-78v-240c0-22 17-39 39-39s39 17 39 39v240c0 86-70 156-156 156h-481c-86 0-156-70-156-156v-688c0-86 70-156 156-156h131c21 0 39 18 39 39s-18 39-39 39z m310 688h-402c-21 0-39-18-39-39s18-39 39-39h402c22 0 40 17 40 39s-18 39-40 39z m21-136c-172 0-313-140-313-312s141-312 313-312 312 140 312 312-141 312-312 312z m125-343h-250c-17 0-31 14-31 31v0c0 17 14 31 31 31h250c17 0 31-14 31-31v0c0-17-14-31-31-31z" horiz-adv-x="1000" />

<glyph glyph-name="ficha-nueva-a" unicode="&#xe83e;" d="M253 465c-22 0-39-17-39-39s17-39 39-39h244c22 0 39 18 39 39s-17 39-39 39h-244z m86-537h-131c-43 0-78 35-78 78v688c0 43 35 78 78 78h481c43 0 78-35 78-78v-240c0-22 17-39 39-39s39 17 39 39v240c0 86-70 156-156 156h-481c-86 0-156-70-156-156v-688c0-86 70-156 156-156h131c21 0 39 18 39 39s-18 39-39 39z m310 688h-402c-21 0-39-18-39-39s18-39 39-39h402c22 0 40 17 40 39s-18 39-40 39z m48-171c-131-12-235-115-246-247-14-167 127-308 294-294 131 12 235 115 246 247 15 167-127 308-294 294z m172-282c0-7-6-13-13-13h-104c-3 0-6-3-6-7v-103c0-8-6-13-13-13h-24c-7 0-13 5-13 13v103c0 4-3 7-6 7h-104c-7 0-13 6-13 13v23c0 7 6 13 13 13h104c3 0 6 3 6 7v104c0 7 6 13 13 13h24c7 0 13-6 13-13v-104c0-4 3-7 6-7h104c7 0 13-5 13-13v-23z" horiz-adv-x="1000" />

<glyph glyph-name="ficha-activa" unicode="&#xe83f;" d="M315-33h-123c-40 0-73 33-73 73v643c0 41 33 73 73 73h449c41 0 74-32 74-73v-224c0-20 16-37 36-37s37 17 37 37v224c0 81-66 147-147 147h-449c-80 0-146-66-146-147v-643c0-80 66-146 146-146h123c20 0 36 16 36 37 0 20-16 36-36 36z m484 159l45 6c18 3 31 20 29 38l-21 148c-2 13-10 22-21 27-5 2-11 3-17 2l-45-6c-6-1-12 0-17 2-16 6-26 26-19 44l18 42c7 17-2 37-19 44l-138 56c-18 7-37-1-44-19l-17-42c-8-18-28-25-44-18-6 2-10 5-14 10l-28 36c-4 5-9 9-14 11-11 4-23 3-33-5l-118-92c-15-11-18-32-6-47l28-36c16-21 3-50-22-54l-45-6c-19-3-31-20-29-38l21-148c1-12 10-22 20-27 6-2 11-3 17-2l46 6c6 1 12 0 17-2 16-6 26-25 18-44l-17-42c-7-17 1-37 19-44l138-56c17-7 37 1 44 19l17 42c8 18 28 25 44 18 5-2 10-5 14-10l28-36c4-5 8-9 14-11 10-4 23-3 33 5l118 92c15 11 17 33 6 47l-28 36c-16 20-4 51 22 54z m-296-19c-51 21-76 79-55 130 21 51 79 76 130 55 51-20 76-79 55-130-21-51-79-75-130-55z" horiz-adv-x="1000" />

<glyph glyph-name="factura" unicode="&#xe840;" d="M830 837h-660c-32 0-58-27-58-59v-856c0-32 26-59 58-59h660c32 0 58 27 58 59v856c0 32-26 59-58 59z m-354-809h-282c-12 0-22 10-22 22 0 13 10 23 22 23h282c13 0 23-10 23-23 0-12-10-22-23-22z m23 113c0-13-10-23-23-23h-282c-12 0-22 10-22 23v0c0 12 10 23 22 23h282c13 0 23-11 23-23l0 0z m45 183h-350c-12 0-22 10-22 23 0 12 10 22 22 22h350c13 0 23-10 23-22 0-13-10-23-23-23z m23 113c0-12-10-22-23-22h-350c-12 0-22 10-22 22v0c0 13 10 23 22 23h350c13 0 23-10 23-23l0 0z m-23 68h-350c-12 0-22 10-22 23 0 12 10 22 22 22h350c13 0 23-10 23-22 0-13-10-23-23-23z m0 91h-350c-12 0-22 10-22 23 0 12 10 22 22 22h350c13 0 23-10 23-22 0-13-10-23-23-23z m249-407c-14 4-28 6-41 6-15 0-28-3-36-9-9-6-14-16-18-31h69v-23h-72c0-2 0-5 0-7 0-2 0-4 0-7v-10h72v-23h-70c3-16 9-28 18-34 8-7 20-10 37-10 7 0 14 0 21 1 6 1 13 3 20 5v-29c-7-2-14-4-22-5-8-1-16-1-24-1-27 0-48 5-63 17-14 11-23 30-27 55h-19v24h17v10c0 2 0 5 0 7 0 2 0 5 0 7h-17v23h20c4 24 13 42 28 53 14 11 35 16 62 16 8 0 16-1 23-1 8-1 16-3 23-5v-29z m11 135h-156c-13 0-23 10-23 23 0 12 10 22 23 22h156c12 0 22-10 22-22 0-13-10-23-22-23z m22 113c0-12-10-22-22-22h-156c-13 0-23 10-23 22v0c0 13 10 23 23 23h156c12 0 22-10 22-23l0 0z m-22 68h-156c-13 0-23 10-23 23 0 12 10 22 23 22h156c12 0 22-10 22-22 0-13-10-23-22-23z m0 91h-156c-13 0-23 10-23 23 0 12 10 22 23 22h156c12 0 22-10 22-22 0-13-10-23-22-23z" horiz-adv-x="1000" />

<glyph glyph-name="ficha-a" unicode="&#xe841;" d="M689 420c0 22-18 39-40 39h-402c-21 0-39-17-39-39s18-39 39-39h402c22 0 40 18 40 39z m-442-117c-21 0-39-17-39-39s18-39 39-39h244c22 0 40 18 40 39s-18 39-40 39h-244z m92-375h-131c-43 0-78 35-78 78v688c0 43 35 78 78 78h481c43 0 78-35 78-78v-240c0-22 17-39 39-39s39 17 39 39v240c0 86-70 156-156 156h-481c-86 0-156-70-156-156v-688c0-86 70-156 156-156h131c21 0 39 18 39 39s-18 39-39 39z m610 536c-58 58-153 58-212 0l-275-274c-6-6-10-13-12-21l-60-197c-5-18-1-37 12-50 10-10 22-15 36-15 4 0 9 1 13 2l202 56c8 2 16 7 22 13l274 273c59 59 59 154 0 213z m-335-406l-102-28 30 98 185 185 71-71-184-184z m265 264l-10-9-71 70 10 10c19 19 51 19 70 0 20-20 20-51 1-71z m-230 294h-402c-21 0-39-18-39-39s18-39 39-39h402c22 0 40 17 40 39s-18 39-40 39z" horiz-adv-x="1000" />

<glyph glyph-name="estado" unicode="&#xe842;" d="M498-122c-92 0-184 0-276 0-16 0-33 0-33 22 0 22 17 23 33 22 20-3 23 6 22 23-2 47 0 96 0 143 0 57 20 107 61 150 18 18 37 35 54 54 33 38 33 81 0 119-17 19-36 36-53 53-42 42-64 94-62 155 1 45-2 89 0 134 0 22-3 35-28 30-3 0-8 0-11 0-11 0-17 6-17 19 0 11 6 18 17 20 6 1 14 0 22 0 182 0 365 0 546 0 5 0 11 0 16 0 14 0 22-8 22-22 0-14-9-23-22-20-33 6-33-13-31-36 1-42 0-85 0-127 1-61-20-112-64-156-19-19-38-36-55-55-30-34-30-76 0-112 16-19 34-36 53-53 44-44 67-96 66-158-2-45 1-89 0-135 0-20 3-32 26-28 2 0 4 0 5 0 14 0 22-8 22-20 0-14-8-22-22-22-6 0-12 0-19 0-90 0-181 0-272 0z m4 902c-64 0-129 0-194 0-16 0-22-3-22-21 2-50 0-100 0-150 0-45 16-82 48-114 18-17 36-32 52-51 53-58 53-128 0-186-19-20-38-38-56-56-25-25-41-55-42-91-2-59-2-119-2-177 0-14 6-14 17-14 131 0 261 0 392 0 14 0 19 3 19 17-1 52 0 104 0 157 0 44-16 81-48 112-19 17-36 35-53 53-52 57-52 127 0 183 18 21 39 39 59 60 23 25 39 53 41 87 1 56 1 113 3 169 0 17-5 22-22 22-66-2-130 0-192 0z" horiz-adv-x="1000" />

<glyph glyph-name="etiqueta" unicode="&#xe843;" d="M419 828c56-23 97-87 144-133 134-134 268-270 404-403 25-25 28-39 2-65-117-114-233-230-347-347-27-27-42-24-66 1-173 174-348 347-520 521-13 12-22 34-22 53-1 109 0 218-1 329 0 38 12 52 50 50 54-3 109 0 164 0 1-1 137 16 192-6z m-283-198c0-46 41-85 84-82 43 2 80 41 82 83 0 46-38 83-85 83-47-1-83-37-81-84z" horiz-adv-x="1000" />

<glyph glyph-name="enviomail" unicode="&#xe844;" d="M964 57v586c0 11-4 21-11 29 0 0 0 0 0 0-8 8-19 13-31 13h-844c-12 0-23-5-31-13 0 0 0 0 0 0-7-8-11-18-11-29v-587c0-10 4-20 11-28 0 0 0 0 0 0 8-8 19-13 31-13h844c12 0 23 5 31 13 0 0 0 0 0 0 7 8 11 18 11 29z m-672 193l67 70 97-101c11-13 27-19 44-19s32 6 44 19l97 101 253-264h-788l136 142 50 52z m-80-22l-134-140v524l252-262-68-71-50-51z m302 20c-4-4-9-6-14-6s-10 2-14 6l-380 395h788l-380-395z m156 102l252 262 0-524-252 262z" horiz-adv-x="1000" />

<glyph glyph-name="enviosms" unicode="&#xe845;" d="M364 245h273c11 0 20 9 20 20s-9 21-20 21h-273c-12 0-21-9-21-21s9-20 21-20z m0-96h273c11 0 20 9 20 20s-9 21-20 21h-273c-12 0-21-9-21-21s9-20 21-20z m372 681h-472c-42 0-77-34-77-76v-808c0-42 34-76 77-76h472c42 0 77 34 77 76v808c0 42-34 76-77 76z m-82-42v-27c0-13-11-24-24-24h-260c-13 0-24 11-24 24v27h308z m-390 0h42v-27c0-34 29-63 64-63h260c35 0 63 29 63 63v27h43c20 0 35-15 35-34l0-696h-542v696c0 19 15 34 35 34z m507-848c-3-16-18-28-34-28h-473c-17 0-32 12-35 28l0 27v49h542v-49l0-27z" horiz-adv-x="1000" />

<glyph glyph-name="fichachat" unicode="&#xe846;" d="M196 486c-20 0-36-16-36-36s16-36 36-36h227c20 0 37 16 37 36s-17 36-37 36h-227z m80-499h-121c-41 0-73 33-73 73v640c0 40 32 72 73 72h446c40 0 73-32 73-72v-224c0-20 16-36 36-36s37 16 37 36v224c0 79-66 145-146 145h-446c-81 0-146-66-146-145v-640c0-80 66-145 146-145h121c20 0 36 16 36 36 0 19-16 36-36 36z m289 640h-374c-20 0-36-16-36-37s16-36 36-36h375c20 0 36 16 36 36s-17 37-37 37z m308-336c-26 33-62 58-106 76-45 18-93 27-146 27s-101-9-145-27c-45-18-80-43-106-76-27-32-40-67-40-106 0-32 10-63 30-93 19-27 44-50 76-69-2-7-4-13-7-20-3-8-6-15-8-19-2-5-6-10-10-15-4-6-7-10-9-12l-11-12c-5-5-8-9-10-11-1-1-1-2-3-3l-4-6c-1-2-2-4-2-6 0 0 0-1 0-1-1-3-1-5 0-7 1-5 3-9 7-12 3-3 7-5 12-5l2 0c14 2 26 4 37 7 56 15 105 41 148 77 15-2 30-2 44-2 53 0 101 9 146 28 44 18 80 43 106 75 26 33 39 68 39 106s-14 74-40 106z m-386-277l10 34-31 18c-28 15-48 34-63 55-14 20-22 42-22 65 0 28 11 54 32 78 21 24 52 45 88 59 37 14 78 22 120 22 43 0 83-7 120-22 37-14 67-35 88-59 22-24 33-50 33-78 0-27-11-53-33-77-21-25-51-45-88-59-37-14-77-22-120-22-13 0-26 1-41 2l-20 2-16-13c-22-20-46-36-72-48 6 13 11 27 15 43z" horiz-adv-x="929" />

<glyph glyph-name="fichadetalle" unicode="&#xe847;" d="M228 487c-20 0-36-16-36-36 0-20 16-36 36-36h224c20 0 36 16 36 36 0 20-17 36-36 36h-224z m78-493h-119c-40 0-72 32-72 72v630c0 40 32 72 72 72h440c40 0 72-32 72-72v-220c0-20 16-36 35-36s36 16 36 36v220c0 79-64 143-143 143h-440c-79 0-143-64-143-143v-630c0-79 64-143 143-143h119c20 0 36 16 36 35s-16 36-36 36z m285 631h-368c-20 0-36-17-36-36 0-20 16-36 36-36h368c20 0 36 16 36 36 0 19-16 36-36 36z m46-233c57 0 110-28 142-75 53-79 33-186-45-239-29-19-62-29-96-29-57 0-111 28-143 75-25 38-35 83-26 128 8 45 34 84 72 110 28 19 62 30 96 30l0 0m0 58c-45 0-90-12-129-39-105-72-133-215-61-320 44-66 117-101 190-101 45 0 90 13 129 40 105 71 133 214 61 320-44 65-116 100-190 100l0 0z m269-580l-144 165c-11 12-10 30 2 40l1 0c12 11 29 10 40-2l145-165c10-12 9-30-3-40l-1 0c-11-11-29-9-40 2z" horiz-adv-x="1000" />

<glyph glyph-name="entradataller" unicode="&#xe848;" d="M391 272h-40c-7 0-13-6-13-13s6-13 13-13h40c7 0 13 6 13 13 0 7-6 13-13 13z m253 71c-6 4-11 7-16 10l-86 58c-26 18-56 27-87 27h-157c-41 0-80-16-110-46-15-15-32-27-51-37-11-6-18-17-18-30 0-19 15-34 33-34h41 13 84 18 336c11 0 20 9 20 20 0 13-8 26-20 32z m-311-26h-181c-4 0-8 4-8 8 0 3 2 6 4 7 22 11 41 25 58 42 25 24 57 38 92 38h35v-95z m26 0v95h96c26 0 51-8 73-22l85-58c6-4 12-8 18-11 2-1 3-2 4-4l-276 0 0 0z m623 267l-225 99c-10 4-21-3-21-14v-52h-207c-20 0-36-16-36-35v-103l0 0c-12 2-25 4-38 4h-157c-52 0-101-21-138-57-23-24-53-39-85-46l-19-4c-27-6-47-31-47-59v-125c0-15 9-28 22-34l52-23c3-16 11-32 23-45 17-16 39-25 61-25s44 9 60 25c11 11 18 24 22 38h245v-9c0-20 15-36 35-36h179l0 0c8-6 18-11 28-14l0 0v-4-34c0-9 9-17 19-14l224 54c7 2 12 8 12 15v485c0 5-4 11-9 13z m-773-475c-11-11-26-18-42-18-16 0-31 7-42 18-18 18-22 45-12 67 0 0 0 0 0 1 0 0 1 1 1 2 0 0 0 0 0 1 1 0 1 1 1 1 0 1 1 1 1 1 0 1 0 1 1 2 0 0 0 1 1 1 0 1 0 1 1 1 0 1 0 1 1 2s0 1 0 1c1 1 1 1 2 1 0 1 0 1 1 1 0 1 1 2 1 3l1 0c0 0 0 0 0 0 1 1 1 1 2 2 0 0 0 0 0 0 1 1 1 1 2 2 0 0 0 0 0 0 22 18 53 18 75 0l0 0c1 0 2-1 2-2 0 0 0 0 1 0 0-1 1-1 2-2 1-1 1-2 2-3 1 0 1 0 1-1s1-1 1-1c1-1 1-1 2-2 0 0 0 0 0 0 0-1 1-2 1-2 0-1 1-1 1-1 15-23 13-55-8-75z m320 2c-5 0-8 4-8 8v9h157c1-6 4-12 7-17h-156z m207-14c-7 2-13 7-18 12-21 20-23 52-8 75 0 0 0 0 0 0 0 1 1 2 1 2 1 1 1 1 1 1 0 1 1 1 1 2 1 0 1 1 1 1s1 1 1 1c1 1 2 2 3 3 5 5 11 9 18 12l0-109 0 0z m0 143v-7c-14-4-26-11-37-21 0-1 0-1 0-1-1-1-2-2-2-3-1 0-1 0-1 0-1-1-2-2-2-3l-1 0c-12-15-18-32-19-51h-422c0 19-7 36-19 51l0 0c-1 1-2 2-2 3 0 0-1 0-1 1-1 1-2 2-3 3-4 4-8 8-13 11-14 9-31 14-47 14-22 0-44-9-61-25-1-1-2-2-2-3-1-1-1-1-1-1-1-1-1-2-2-2 0-1-1-1-1-1-1-1-1-2-2-3 0 0 0 0 0 0-2-3-3-5-5-7 0 0 0 0 0 0-1-2-1-3-2-4 0 0 0 0 0 0-4-9-8-18-9-27l-40 17c-4 2-7 7-7 11v125c0 16 11 30 27 34l18 4c37 7 71 26 98 52 32 33 75 50 120 50h157c34 0 67-10 95-29l85-58c18-11 44-27 72-33l29-6v-91h0z m0 117l-7 2-17 3c-24 5-47 19-62 29l-86 58c-13 9-28 17-43 22v111c0 4 3 8 8 8h207l0-233 0 0z" horiz-adv-x="1000" />

<glyph glyph-name="enviar-2" unicode="&#xe849;" d="M452 294c36-36 45-36 81 0 122 117 245 229 367 347 5 4 11 11 16 15-16 11-32 11-46 11-250 0-500 0-750 0-4 0-15 0-20 0-5 0-16 0-20-11 0-11 11-15 11-20 122-113 239-230 361-342z m-133 67c-86 81-174 162-260 244 0 0-4 4-11 4-10-31-4-515 5-540 5 0 5 0 11 4 86 88 174 175 259 261 11 11 7 16-4 27z m572-306c-77 81-158 164-239 245-16 16-21 16-36 0-21-16-36-36-57-52-36-31-81-31-117 0-20 16-40 36-61 57-11 4-15 11-25 0-81-88-168-169-254-255-5-5-5-11-5-16 270 0 541 0 811 0-2 10-13 14-17 21z m45 550c-81-82-169-163-255-246-15-15-11-20 0-31 88-81 169-169 250-250 16-15 21-11 25 11 0 174 0 352 0 525-9 2-14-3-20-9z" horiz-adv-x="1000" />

<glyph glyph-name="estadisticas" unicode="&#xe84a;" d="M243 370c0 0 0 0 0 0 3 1 75 5 170 36 80 27 191 77 281 171l-4-57c0-8 6-14 13-14 0 0 0 0 1 0 7 0 13 5 13 12l5 95v0c0 0 0 0 0 1s0 0 0 0c0 0 0 1 0 1s0 0 0 0c0 1 0 1 0 1s0 0 0 1c0 0 0 0-1 1l0 0c0 1 0 2-1 2l0 0c0 1 0 1-1 1 0 0 0 0 0 1s0 0-1 0c0 0 0 0 0 0s0 1 0 1 0 0-1 0c0 0 0 0 0 0 0 0 0 0 0 1-1 0-1 0-1 0 0 0 0 0-1 0 0 1 0 1 0 1 0 0-1 0-1 0 0 0 0 0-1 0 0 0 0 1 0 1 0 0-1 0-1 0s0 0-1 0c0 0 0 0 0 0s-1 0-1 0c0 0-1 0-1 0s0 0 0 0c-1 0-1 0-1 0-1 0-1 0-1 0l-96-7c-7-1-13-7-12-15s7-12 14-12l64 5c-87-91-194-140-272-165-91-31-163-35-164-35-7-1-13-7-12-15 1-6 7-12 14-12z m602 359h-689c-71 0-129-57-129-128v-502c0-70 58-128 129-128h49 26 109 26 51 26 108 27 50 27 108 26 56c70 0 128 58 128 128v502c0 71-57 128-128 128z m-505-722h-108-1v177h0 109v-177z m315 0v416h108v-416h-108z m283 92h0c0-51-42-92-93-92h-55v420c0 13-10 22-22 22h-117c-12 0-22-10-22-22v-420h-51 0v159c0 7-6 13-13 13s-14-6-14-13v-159h-108 0v293h108v-73c0-7 6-13 14-13 7 0 13 5 13 13v77c0 12-10 22-22 22h-117c-12 0-22-10-22-22v-297h-51 0v181c0 12-10 22-22 22h-117c-12 0-22-10-22-22v-181h-49c-52 0-93 41-93 92v502c0 51 41 93 93 93h689c51 0 93-42 93-93v-502z" horiz-adv-x="1000" />

<glyph glyph-name="extras" unicode="&#xe84b;" d="M30 236c0-18 27-18 28-18-1 7-2 14-2 21 0 56 46 101 102 101 56 0 101-45 101-101 0-12-2-24-6-34 113 8 469 5 484 3 2 0 6 0 11 0-1 7-2 15-2 23 0 56 46 102 102 102 57 0 102-45 103-101l18 8c1 0 1 2-1 3-4 3-7 10 5 30 14 25 0 43-8 52-3 3-6 8-6 12-1 62-24 83-36 90-4 2-4 3 0 4 55 10 18 9 13 24-5 15-38-2-55-6-7-1-27-5-50-9 1 1 2 2 2 4-1 3-2 6-3 8-2 4-6 10-10 13-4 3-10 6-20 5-3-1-5-3-8-5 0 1-1 1-1 2-4 5-11 11-21 9-12-3-17-31-20-49-4 0-9-1-12-1h-65c13 17-2 28-15 29-3 0-8-2-13-5-3 5-9 8-14 9-8 1-27-20-36-30-1-1-1-2-1-2h-169v21c0 8-6 14-13 14s-14-6-14-14v-21h-30c-4 0-5 2-2 5 19 18 82 78 79 85-2 4 1 11 3 16 2 4 2 9-2 12-6 3-16 8-31 6-4 0-11-2-15-4-32-16-111-84-133-103-3-3-9-5-14-6-187-16-214-77-217-98-1-4-4-10-6-13-16-20-7-60-2-76 2-4 2-11 2-15z m651 233c0 18-9 32-21 32-6 0-13-6-16-13-3 5-8 8-12 8-9 0-16-11-16-24 0-14 7-9 16-9 3 0 6-1 9-1 3-7 10-4 19-4 12 0 21-6 21 11z m91 12c3 0 6-1 9-1 3-7 10-4 19-4 12 0 21-6 21 11s-9 32-21 32c-6 0-13-6-16-13-3 5-8 8-12 8-9 0-16-11-16-24 0-14 7-9 16-9z m-615-324c34 0 62 20 75 49 4 10 7 21 7 33 0 44-37 81-81 81s-81-37-81-81c0-7 0-12 2-18 7-36 40-64 78-64z m691 156c-45 0-82-37-82-82 0-7 1-14 3-21 9-35 41-61 79-61 44 0 80 34 82 77 0 2 1 3 1 5 0 45-37 82-83 82z" horiz-adv-x="1000" />

<glyph glyph-name="filtrar" unicode="&#xe84c;" d="M392 374c10-10 15-25 15-40v-436c0-26 32-40 51-21l121 139c17 20 26 30 26 49v269c0 15 5 29 15 40l350 380c26 28 6 74-33 74h-862c-39 0-59-46-33-74l350-380z" horiz-adv-x="1000" />

<glyph glyph-name="frenada" unicode="&#xe84d;" d="M459 400c-48 0-87-39-87-87s39-87 87-87 87 39 87 87-39 87-87 87z m0-117c-16 0-30 14-30 30s14 30 30 30 30-13 30-30-13-30-30-30z m0 254c-123 0-223-100-223-224 0-123 100-223 223-223s224 100 224 223c0 123-101 224-224 224z m0-390c-91 0-166 75-166 166 0 92 75 166 166 166s166-74 166-166c0-91-74-166-166-166z m525 195c-7 130-61 251-153 343-91 92-213 146-342 153-8 1-16-2-22-7-5-6-9-13-9-21v-45c-248-1-450-203-450-452 0-249 202-451 451-451 249 0 451 202 452 450h45c8 0 15 4 20 9 6 6 9 14 8 21z m-525-423c-217 0-394 177-394 394 0 217 176 394 393 394v-68c0-15 12-27 26-28 146-12 261-127 273-273 1-15 14-26 28-26h69c-1-217-178-393-395-393z m352 451c-12 73-47 142-100 195-53 53-122 88-195 100v114c214-26 383-195 409-409h-114z" horiz-adv-x="1000" />

<glyph glyph-name="fotos" unicode="&#xe84e;" d="M145 831h719c68 0 124-56 124-124v-719c0-68-56-124-124-124h-719c-68 0-124 56-124 124v719c0 68 56 124 124 124z m580-108c-24 0-43-19-43-43v-104c0-24 19-44 43-44h109c24 0 44 20 44 44v104c0 24-20 43-44 43 0 0-109 0-109 0z m153-301h-85c9-26 13-54 13-83 0-160-135-291-301-291-165 0-300 131-300 291 0 29 4 57 13 83h-89v-408c0-21 17-39 38-39h673c21 0 38 18 38 39v408z m-373 116c-107 0-194-84-194-188 0-104 87-188 194-188 108 0 195 84 195 188-1 104-87 188-195 188z" horiz-adv-x="1000" />

<glyph glyph-name="fichavista" unicode="&#xe84f;" d="M196 486c-20 0-36-16-36-36s16-36 36-36h227c20 0 37 16 37 36s-17 36-37 36h-227z m80-499h-121c-41 0-73 33-73 73v640c0 40 32 72 73 72h446c40 0 73-32 73-72v-224c0-20 16-36 36-36s37 16 37 36v224c0 79-66 145-146 145h-446c-81 0-146-66-146-145v-640c0-80 66-145 146-145h121c20 0 36 16 36 36 0 19-16 36-36 36z m289 640h-374c-20 0-36-16-36-37s16-36 36-36h375c20 0 36 16 36 36s-17 37-37 37z m37-211c-147 0-268-120-268-269s121-268 268-268 268 120 268 268-120 269-268 269z m207-269c0-114-93-207-207-207s-207 93-207 207 93 207 207 207 207-93 207-207z m-277-113l-81 82c-10 9-10 25 0 34 9 9 25 9 34 0l82-82 153 154c9 9 26 9 35 0 9-9 9-25 0-35l-154-153-34-35-35 35z" horiz-adv-x="929" />

<glyph glyph-name="ganar" unicode="&#xe850;" d="M217-150v308c0 11-10 20-21 20-11 0-21-9-21-20v-308l42 0z m295 0v397c0 82 27 162 77 225 2 2 4 5 6 7 13 16 22 34 28 54l61 228c6 21 2 43-11 60-12 17-32 28-53 29-33 2-63-21-72-53l-38-141c-8-29-34-49-63-49h-12c20 22 32 51 32 83 0 68-55 124-123 124s-124-56-124-124c0-32 12-61 32-83h-11c-29 0-55 20-63 49l-38 139c-9 32-38 55-72 55-21 0-41-10-54-27s-17-38-12-59l63-231c5-20 14-38 28-54 1-2 3-4 4-6 49-61 77-139 78-218 0-12 9-21 21-21 0 0 0 0 0 0 11 0 20 10 20 21-1 89-32 176-86 244-2 2-4 5-5 6-10 12-17 25-20 39l-63 231c-2 8 0 17 5 23s13 10 21 10c15 0 28-10 32-24l37-139c13-47 56-79 104-79h205c49 0 91 32 104 79l38 141c4 14 16 23 29 23 9-1 17-5 22-12 5-7 7-16 5-25l-62-227c-4-15-10-28-20-39-2-3-4-5-6-8-55-70-86-159-86-251v-396l42-1z m-169 758c-45 0-82 37-82 82s37 82 82 82c46 0 82-37 82-82s-36-82-82-82z m-8-758v287l0 0c0 5 4 9 8 9 5 0 9-4 9-9v-287l42 0v287c0 28-23 51-50 51-28 0-50-23-50-51v-287h41z" horiz-adv-x="687" />

<glyph glyph-name="fichanovista" unicode="&#xe851;" d="M196 486c-20 0-36-16-36-36s16-36 36-36h227c20 0 37 16 37 36s-17 36-37 36h-227z m80-499h-121c-41 0-73 33-73 73v640c0 40 32 72 73 72h446c40 0 73-32 73-72v-224c0-20 16-36 36-36s37 16 37 36v224c0 79-66 145-146 145h-446c-81 0-146-66-146-145v-640c0-80 66-145 146-145h121c20 0 36 16 36 36 0 19-16 36-36 36z m289 640h-374c-20 0-36-16-36-37s16-36 36-36h375c20 0 36 16 36 36s-17 37-37 37z m37-211c-147 0-268-120-268-269s121-268 268-268 268 120 268 268-120 269-268 269z m207-269c0-114-93-207-207-207s-207 93-207 207 93 207 207 207 207-93 207-207z m-173 0l82 82c9 9 9 25 0 34-9 9-25 9-34 0l-82-82-82 82c-9 9-25 9-34 0-9-9-9-25 0-34l82-82-82-82c-5-5-7-11-7-17s2-12 7-17c9-9 25-9 34 0l82 82 82-82c4-4 11-7 17-7 6 0 12 2 17 7 9 9 9 25 0 34l-82 82z" horiz-adv-x="929" />

<glyph glyph-name="fichavo" unicode="&#xe852;" d="M196 486c-20 0-36-16-36-36s16-36 36-36h227c20 0 37 16 37 36s-17 36-37 36h-227z m80-499h-121c-41 0-73 33-73 73v640c0 40 32 72 73 72h446c40 0 73-32 73-72v-224c0-20 16-36 36-36s37 16 37 36v224c0 79-66 145-146 145h-446c-81 0-146-66-146-145v-640c0-80 66-145 146-145h121c20 0 36 16 36 36 0 19-16 36-36 36z m289 640h-374c-20 0-36-16-36-37s16-36 36-36h375c20 0 36 16 36 36s-17 37-37 37z m-7-329l174-146c3-3 3-7 0-10l-174-145c-4-4-12-1-12 6v289c1 7 8 10 12 6z m44 118c-147 0-268-120-268-269s121-268 268-268c148 0 268 120 268 268s-120 269-268 269z m207-269c0-114-93-207-207-207s-207 93-207 207 93 207 207 207 207-93 207-207z" horiz-adv-x="929" />

<glyph glyph-name="flechaup" unicode="&#xe853;" d="M456 802l-349-349c-8-8-2-21 9-21h247c7 0 13-6 13-13v-511c0-8 6-14 13-14h167c7 0 13 6 13 14v511c0 7 6 13 13 13h233c11 0 17 13 9 21l-350 349c-5 5-13 5-18 0z" horiz-adv-x="929" />

<glyph glyph-name="flechadown" unicode="&#xe854;" d="M474-102l348 349c8 8 2 21-9 21h-246c-7 0-13 6-13 13v511c0 8-6 14-14 14h-165c-7 0-13-6-13-14v-511c0-7-6-13-13-13h-233c-11 0-17-13-9-21l349-349c5-5 13-5 18 0z" horiz-adv-x="929" />

<glyph glyph-name="guardar" unicode="&#xe855;" d="M840 221v-222h-678v222h-131v-288c0-36 29-65 66-65h809c36 0 65 29 65 65v288h-131z m-351 22l-187 225c0 0-28 27 3 27s105 0 105 0 0 18 0 46c0 79 0 224 0 283 0 0-4 16 20 16 24 0 131 0 148 0 18 0 17-14 17-14 0-57 0-206 0-283 0-25 0-41 0-41s60 0 97 0c38 0 9-28 9-28s-159-211-181-234c-16-15-31 3-31 3z" horiz-adv-x="1000" />

<glyph glyph-name="general-documento" unicode="&#xe856;" d="M773 850h-546c-54 0-97-44-97-97v-808c0-53 43-97 97-97h548c53 0 97 44 97 97v808c-2 53-45 97-99 97z m-546-103h248v-70h-248v70z m546-775h-546v70h545v-70z m0 176h-546v71h545v-71z m0 175h-546v71h545v-71z m0 177h-546v70h545v-70z" horiz-adv-x="1000" />

<glyph glyph-name="ganar1" unicode="&#xe857;" d="M520 597c54 0 98 44 98 98s-44 98-98 98-98-44-98-98 44-98 98-98z m145-300c8 68 35 132 77 185 1 1 2 2 3 4l0 0c1 1 2 2 3 3 10 13 18 28 23 45l60 222c3 13 1 27-8 39-8 11-21 18-35 19-21 1-41-14-47-35l-37-138c-10-37-44-64-83-64h-201c-39 0-73 27-83 64l-37 136c-6 22-26 37-48 37-14 0-26-7-35-17s-11-25-8-39l61-224 0 0c4-17 12-32 23-45l1 0c0-1 1-2 2-3 1-1 1-2 2-3 42-53 69-118 77-186l0-4 0 0c1-21 1-132 1-133v-310h99v317c0 25 21 45 46 45 25 0 45-20 45-45v-317l98 1v433l1 13z" horiz-adv-x="1000" />

<glyph glyph-name="historicoweb" unicode="&#xe858;" d="M968 420c-17 41-42 78-73 109-32 31-68 56-109 73-42 18-87 27-133 27-4 0-7 0-11 0l-33 66c-9 17-25 27-44 27h-20v19c0 8-6 14-13 14h-339c-8 0-14-6-14-14v-19h-19c-19 0-35-11-44-27l-104-205 0-1c-4-7-7-15-7-25v-217c0-27 22-48 49-48h269c4-15 9-30 15-45 18-41 42-77 74-109 31-31 68-56 108-73 42-18 87-27 133-27 46 0 91 9 134 27 40 17 77 42 108 73 32 32 56 68 73 109 18 42 27 87 27 133s-9 91-27 133z m-422 271h19c7 0 13-4 17-10l27-55c-10-1-21-3-31-5v32c0 7-6 14-14 14h-18v24z m-339 36h311v-60h-311v60z m343-88v-26c-10-3-20-7-30-11-16-7-31-15-46-24h-299v61h375z m-198-190h-85c0 0-1 0-1 1l-20 44c-5 11-17 19-29 19h-73v37h292c-9-6-17-14-24-22-24-23-44-50-60-79z m-209 232c3 6 10 10 16 10h20v-24h-18c-8 0-14-6-14-14v-74h-17c-8 0-14-6-14-14v-52h-58l85 168z m-89-451c-10 0-18 8-18 18v216c0 10 8 18 18 18h163c0 0 1 0 1 0l20-45c5-11 17-18 29-18h70c-17-42-26-86-26-132 0-19 2-38 5-57h-262z m820-164c-59-59-138-91-221-91-83 0-162 32-221 91-59 59-91 138-91 221s32 162 91 221c59 59 138 91 221 91 83 0 162-32 221-91 59-59 91-138 91-221s-32-162-91-221z m-155 15c-2 0-4 1-5 1h-1l-2 0c-9 3-16 8-21 16l-43 70-77-53c-10-7-23-8-34-2-11 6-18 17-18 29v320c0 15 8 29 21 37 13 8 29 8 43 1l262-141c10-4 16-15 18-27l0 0v-1c0-12-5-22-14-28l0-1-69-49 43-71c10-15 5-36-10-46l-75-49c-5-4-12-6-18-6z m-2 26c1 0 2 0 2-1 1 1 3 1 3 1l1 1 76 49c3 2 4 8 2 11l-56 91 88 64c2 1 4 4 4 7 0 2-1 5-4 6l-1 1-262 140c-6 3-12 3-18 0-5-4-9-9-9-16v-319c0-4 3-6 5-7 2-1 6-1 7 0l1 1 98 68 58-94c1-1 2-2 5-3z" horiz-adv-x="1000" />

<glyph glyph-name="historicochat" unicode="&#xe859;" d="M476 87h-2c-7 0-13 3-18 7-5 4-8 9-9 15-2 4-2 9-1 11 0 4 2 7 3 10l0 0 6 9 1 0c0 0 1 1 1 1 0 0 1 1 2 2 1 2 3 4 6 7l9 9c0 1 1 2 5 8l1 1 0 0c3 3 5 6 6 9l0 0 1 1c1 2 3 8 6 13 0 2 1 4 2 6-23 14-42 32-56 53l-1 0c-16 26-25 53-25 81 0 33 12 64 34 92 22 27 52 48 89 63 37 15 77 23 120 23 43 0 83-8 120-23 37-15 67-36 89-63l0 0c23-29 35-60 35-92 0-33-12-64-34-92-22-27-52-49-89-64-37-15-77-22-120-22-10 0-20 0-31 1-35-29-74-49-118-60-9-3-19-4-31-6l-1 0z m-5 27c0 0 0 0 1 0l0-1 1 0c0 0 0 0 1 0h0c11 1 19 2 27 5l1 0c41 10 78 30 111 58l5 4 5-1c11-2 23-2 34-2 40 0 77 7 110 21 33 14 60 32 79 56 19 24 28 49 28 76 0 27-9 52-29 76l0 0c-19 24-46 43-79 57-33 13-70 20-110 20-40 0-77-7-111-20-33-14-59-33-78-57-20-23-29-48-29-76 0-22 7-45 21-66 15-21 33-37 57-52l8-5-2-9c-2-7-4-12-7-18-2-5-4-11-6-14-2-6-6-10-9-14-4-5-6-9-9-11l-9-10c-2-2-3-4-5-6 0-1-1-1-2-2-1-1-1-2-3-3l-1-2v-2l0-1 0 0c0 0 0-1 0-1z m4 8c0 0 0 0 0 0 0 0 0 0 0 0z m493 298c-17 41-42 78-73 109-32 31-68 56-109 73-42 18-87 27-133 27-4 0-7 0-11 0l-33 66c-9 17-25 27-44 27h-20v19c0 8-6 14-13 14h-339c-8 0-14-6-14-14v-19h-19c-19 0-35-11-44-27l-104-205 0-1c-4-7-7-15-7-25v-217c0-27 22-48 49-48h269c4-15 9-30 15-45 18-41 42-77 74-109 31-31 68-56 108-73 42-18 87-27 133-27 46 0 91 9 134 27 40 17 77 42 108 73 32 32 56 68 73 109 18 42 27 87 27 133s-9 91-27 133z m-422 271h19c7 0 13-4 17-10l27-55c-10-1-21-3-31-5v32c0 7-6 14-14 14h-18v24z m-339 36h311v-60h-311v60z m343-88v-26c-10-3-20-7-30-11-16-7-31-15-46-24h-299v61h375z m-198-190h-85c0 0-1 0-1 1l-20 44c-5 11-17 19-29 19h-73v37h292c-9-6-17-14-24-22-24-23-44-50-60-79z m-209 232c3 6 10 10 16 10h20v-24h-18c-8 0-14-6-14-14v-74h-17c-8 0-14-6-14-14v-52h-58l85 168z m-89-451c-10 0-18 8-18 18v216c0 10 8 18 18 18h163c0 0 1 0 1 0l20-45c5-11 17-18 29-18h70c-17-42-26-86-26-132 0-19 2-38 5-57h-262z m820-164c-59-59-138-91-221-91-83 0-162 32-221 91-59 59-91 138-91 221s32 162 91 221c59 59 138 91 221 91 83 0 162-32 221-91 59-59 91-138 91-221s-32-162-91-221z" horiz-adv-x="1000" />

<glyph glyph-name="ganado" unicode="&#xe85a;" d="M615 765c-10 0-19-9-19-20s9-19 19-19c86 0 156-70 156-155 0-11 8-20 19-20 11 0 20 9 20 20 0 107-87 194-195 194z m263-193c0 144-117 261-261 261s-261-117-261-261c0-128 93-235 216-257l-59-77h93l8-37c6-29-3-59-25-79l-2-2c-33-30-47-76-37-120 2-6 3-13 3-20 0-6-1-12-3-19-13 0-18 8-20 54l0 5c-1 18-2 31-4 38-8 45-47 57-67 57h-24l0 0h-8c14 16 22 36 22 58 0 48-38 86-86 86-48 0-86-38-86-86 0-22 8-42 22-58h-8c-20 0-38 14-44 34l-26 98c-6 22-27 38-51 38-15 0-28-7-38-19-9-12-12-27-8-41l44-161c4-15 10-27 19-39 2-1 3-2 4-3 34-43 53-98 54-153l29 0c-1 62-23 123-61 171-1 1-2 3-3 4-7 8-12 17-14 27l-44 162c-1 5 0 11 3 16 4 4 9 7 15 7 11 0 20-7 22-17l27-97c9-33 38-56 72-56h144v0h24c2 0 33 0 39-33 1-4 2-13 3-35l0-4c1-18 2-36 7-51 7-19 19-26 30-29-3-6-8-11-13-16l-57-51h60l24 22c25 23 40 57 40 91 0 10-2 20-4 29-7 30 3 62 25 82l2 2c32 29 46 74 38 116l-6 29h74l-54 78c120 24 211 130 211 256z m-515-456c-32 0-58 26-58 57 0 32 26 58 58 58 31 0 57-26 57-58 0-32-26-57-57-57z m254 235c-122 0-221 99-221 221s99 221 221 221 221-99 221-221-99-221-221-221z" horiz-adv-x="1000" />

<glyph glyph-name="general-ok" unicode="&#xe85b;" d="M975 641l-72 72c-26 26-70 26-97 0l-433-433-182 181c-24 23-63 23-86 0l-83-83c-24-23-24-62 0-86l231-231 72-72 6-6c24-24 63-24 86 0l83 83c2 1 2 3 3 4l472 472c27 28 27 72 0 99z" horiz-adv-x="1000" />

<glyph glyph-name="guardar1" unicode="&#xe85c;" d="M867 762h-720c-33 0-59-26-59-58v-708c0-32 26-58 59-58h706c33 0 59 27 59 60v719c0 25-20 45-45 45z m-607-42h480c8 0 14-6 14-14v-210c0-8-6-14-14-14h-480c-8 0-14 6-14 14v210c0 8 6 14 14 14z m505-722h-530c-8 0-14 6-14 14v324c0 8 6 14 14 14h530c8 0 14-6 14-14v-324c0-8-6-14-14-14z m-140 686h42c8 0 14-6 14-14v-141c0-8-6-14-14-14h-42c-8 0-14 6-14 14v141c0 8 6 14 14 14z m89-421h-428c-7 0-14 6-14 14l0 0c0 8 7 14 14 14h428c8 0 14-6 14-14l0 0c0-8-6-14-14-14z m0-99h-428c-7 0-14 6-14 14l0 0c0 8 7 14 14 14h428c8 0 14-6 14-14l0 0c0-8-6-14-14-14z m0-95h-428c-7 0-14 6-14 14v0c0 7 7 14 14 14h428c8 0 14-7 14-14v0c0-8-6-14-14-14z" horiz-adv-x="1000" />

<glyph glyph-name="logorrg" unicode="&#xe85d;" d="M1402 503c28-96-28-151-128-195-176-77-345-167-516-255-49-25-90-30-141-4-188 97-377 189-564 283-18 9-47 9-45 39 2 25 29 27 47 39 3 3 7 4 10 6 156 115 313 129 472 5 98-75 192-63 297-1 146 86 303 154 456 230 113 56 113 56 113-74-1-19-1-38-1-73z" horiz-adv-x="1416" />

<glyph glyph-name="luces" unicode="&#xe85e;" d="M597 776h-190c-15 0-28-13-28-28s13-29 28-29h190c16 0 28 13 28 29s-12 28-28 28z m0-113h-190c-15 0-28-13-28-28s13-29 28-29h190c16 0 28 13 28 29s-12 28-28 28z m0-113h-190c-15 0-28-13-28-28 0-16 13-29 28-29h190c16 0 28 13 28 29 0 15-12 28-28 28z m-302 282h-83c-110 0-198-88-198-197s88-198 198-198h83c15 0 28 12 28 28v339c0 16-13 28-28 28z m-29-339h-54c-78 0-142 64-142 142s64 141 142 141h54v-283z m319-286h-190c-15 0-28-13-28-28s13-29 28-29h190c15 0 28 13 28 29s-13 28-28 28z m0-113h-190c-15 0-28-13-28-29s13-28 28-28h190c15 0 28 13 28 28s-13 29-28 29z m0-113h-190c-15 0-28-13-28-29s13-28 28-28h190c15 0 28 13 28 28s-13 29-28 29z m196 282h-83c-16 0-29-12-29-28v-339c0-16 13-29 29-29h83c109 0 198 89 198 198s-89 198-198 198z m0-339h-55v283h55c78 0 141-64 141-142s-63-141-141-141z" horiz-adv-x="1000" />

<glyph glyph-name="lupa" unicode="&#xe85f;" d="M669 731c-150 150-395 150-545 0-151-150-151-395 0-545 133-134 342-148 492-44 3-15 10-29 22-41l219-218c32-32 83-32 115 0 32 31 32 83 0 115l-219 219c-11 11-25 19-40 22 104 150 90 358-44 492z m-69-476c-112-112-295-112-407 0-112 112-112 295 0 407 112 112 295 112 407 0 112-112 112-295 0-407z" horiz-adv-x="1000" />

<glyph glyph-name="levante" unicode="&#xe860;" d="M804 787c0 0-48 47-58 47-10 0-22-8-68 0s-58-24-59-27c-2-3 21-29 14-47s-8-39-14-45-9-18-16-20c-8-3-31-4-33-16s4-32-17-45c-22-12-42-22-38-35 5-12-12-16-12-16s-44 25-44 32c1 6 13 19 0 27-12 8-48 25-62 19-14-6-21-18-9-26 12-8 45-17 46-22 1-5 0-12-2-21-2-8 0-19-1-28 0-9-11-20-25-34-15-14-42-31-31-63s39-25 51-38c12-14 19-43 18-75 0-31 0-40 4-41 5-2 33 2 40 0s11-12 11-26c1-14 8-50 2-59-7-9-13-9-20 0-7 9-13 20-24 19-11-1-53-4-56-9-3-4-9-25-15-31-5-5-13-16-4-29s12-27 2-34c-10-8-18-15-24-15-6 0-13 15-27 13-15-1-25-6-32-13-7-7-10-7-19-7s-73-64-78-70-18-27-4-38c15-12 37-3 49-11 11-9 14-15 11-26-3-10-1-17 9-30 11-12 19-25 27-43s16-28 35-30 20-7 34-9c15-1 23 22 44 31s28 15 50 15 31 8 46 11c15 3 26-3 29 9s0 33 9 45c9 12 14 21 22 37 8 15 12 29 14 46 2 17-1 30 16 37 17 7 18 15 19 30 2 15-5 22 18 27 23 5 29 2 35 11 7 10-6 18 15 25 20 8 29 17 36 29 7 12 6 16 22 23 16 6 20 17 26 29s-50 32-67 43c-16 11-44 51-44 65s8 16 0 23-18 6-18 28c0 22 18 124 42 155s51 67 69 91c19 24 68 101 56 112z" horiz-adv-x="1000" />

<glyph glyph-name="listadocoche" unicode="&#xe861;" d="M944 431l-10 11 13 8c4 2 9 5 13 7 9 6 18 10 26 16 7 6 10 11 10 13 0 2-3 7-13 11-21 11-45 15-80 15-2 0-3 0-7-6-3-4-8-11-17-15l-11-4-18 35c-14 29-29 59-43 88-17 39-45 59-88 65-74 12-149 18-219 18-71 0-144-5-219-17-43-6-70-27-88-65-13-30-28-60-43-89l-17-35-11 5c-9 4-14 10-18 15-4 5-4 6-7 6-34 0-59-5-81-15-8-5-12-9-12-12 0-2 3-6 10-12 8-6 17-11 26-16 4-3 8-5 13-8l13-7-10-12c-18-20-35-38-39-64-8-54-13-100-9-146 0-15 2-29 3-44 4-50 8-102 6-153 0-5 0-11 2-13 2-2 7-3 14-3 29 0 58 0 86 0 15 0 29 0 44 0 11 0 23 0 25 1 1 2 1 15 1 24 0 15 4 29 28 31 97 7 192 10 283 10 91 0 186-4 283-10 24-2 28-16 28-31 0-9 0-22 1-25 2 0 14 0 25 0 15 0 29 0 44 0 14 0 28 0 43 0 14 0 28 0 43-1 7 0 12 1 14 4 2 2 2 8 2 12-2 52 2 104 6 154 1 15 2 29 3 43 4 47-1 93-9 147-3 26-21 44-39 64z m-765 85c19 36 36 70 54 103 10 17 26 26 50 30 74 10 147 16 217 16s144-6 218-16c23-4 40-13 49-29 19-34 36-68 55-104l24-45-22 1c-110 8-215 12-323 12s-213-4-323-12l-22-1 23 45z m-122-241c0 15 4 21 17 21 1 0 3 0 4 0 35-5 71-7 106-12 20-3 33-17 39-35 7-18-2-29-22-29-15 0-30 0-45 0-14 0-28 0-41 0-34 0-56 21-58 55z m177-134c-18 0-37 0-56 0-19 0-39 0-58 0-10 0-17 3-18 14-1 12 7 17 18 17 38 0 76 0 114 0 11 0 19-4 19-15 1-12-8-16-19-16z m309 113l-29-55h-14-14l-29 55c-2 4-2 8 0 12l29 55h14 14l29-55c2-4 2-9 0-12z m341-113c-19 0-39 0-58 0-18 0-37 0-56 0-11 0-20 4-19 16 0 10 9 15 19 15 38 0 76 0 114 0 12 0 19-5 18-17-1-11-8-14-18-14z m63 134c-1-34-24-56-57-56-14 0-28 0-41 0-16 0-30 0-46 0-19 0-28 11-22 29 7 18 20 33 39 35 35 6 71 7 106 12 2 0 3 0 5 0 13 1 17-5 16-20z" horiz-adv-x="1000" />

<glyph glyph-name="historicofichas" unicode="&#xe862;" d="M576 418h-74l-47 129c-5 13-23 12-26-1l-51-200-49 143c-4 11-20 13-25 2l-41-73h-43c-7 0-14-6-14-14 0-7 7-14 14-14h51c5 0 10 3 12 8l30 52 54-157c4-13 23-12 26 1l52 201 35-96c1-5 7-9 13-9h83c8 0 14 7 14 14 0 8-6 14-14 14z m0-230h-356c-7 0-14-6-14-14 0-8 7-14 14-14h356c8 0 14 6 14 14 0 8-6 14-14 14z m0-123h-356c-7 0-14-6-14-14 0-8 7-14 14-14h356c8 0 14 6 14 14 0 8-6 14-14 14z m378 552c-1 2-3 4-6 5l-92 51-5 1-1-4 0 0 0 0 0 4c-1 0-1 1-2 1l0 0c0 0 0 0 0 0l-2 0c0 0-1 0-3-1 0 0-1 0-2 0 0 0 0 0 0 0 0 0 0 0 0 0 0 0-1 0-1-1l1-3 0 0h0l-3 3-2-1c0 0 0 0 0 0l0 0 0 0c-1-1-1-1-2-1l-3-3c0-1 0-1-1-2 0 0 0-1 0-1l-40-103c-1-3-1-5-1-8 0-7 5-14 12-17 0 0 0 0 0 0 10-3 21 2 25 11l21 56c12-32 20-64 26-95 15-73 16-142 12-199-2-17-3-33-5-47-13-107-43-182-43-182-1-3-1-5-1-8 0-7 4-14 12-17 2-1 4-1 7-1 1 0 2 0 3 0 0 0 1 0 2 0 1 1 1 1 2 1 1 0 2 1 3 1 0 1 0 1 1 1 1 1 2 2 3 3 1 1 1 1 2 2 0 1 1 2 1 2l0 0c0 0 0 0 0 0l0 1c1 3 31 79 46 191 4 33 7 73 7 116-1 73-11 157-41 241l46-25c5-3 10-3 15-2 5 2 9 5 11 9l1 1c3 7 2 15-3 20z m-119 48l0 0 0 0 0 0z m3 3l0 0 0 0 0 0z m14 1l0 0 0 0 0 0z m-222 109h-57v12c0 9-7 16-16 16h-317c-9 0-16-7-16-16v-12h-62c-66 0-120-54-120-120v-644c0-66 53-120 120-120h468c66 0 120 54 120 120v644c0 66-54 120-120 120z m-373-5h283v-26h-62c-26 0-47-22-47-48 0-9-8-16-17-16h-31c-10 0-17 7-17 16 0 27-21 48-47 48h-62v26z m459-759c0-48-39-87-86-87h-468c-48 0-87 39-87 87v644c0 48 39 86 87 86h62v-14c0-9 7-17 16-17h79c7 0 14-6 14-14 0-27 22-50 50-50h31c28 0 50 23 50 50 0 8 7 14 14 14h79c9 0 16 8 16 17v14h57c48 0 87-38 87-86v-644z" horiz-adv-x="1000" />

<glyph glyph-name="ir" unicode="&#xe863;" d="M500 843c-272 0-493-220-493-493s221-493 493-493 493 221 493 493-220 493-493 493z m55-745v180h-16c-129 0-252-55-338-152l-26-28v95c0 181 145 327 323 327h57v180l270-301-270-301z" horiz-adv-x="1000" />

<glyph glyph-name="irdetras" unicode="&#xe864;" d="M677 692c8 0 17-2 24-7 13-8 21-22 21-38v-179l185 0c26 0 48-21 48-47v-142c0-26-22-47-48-47l-185-1v-178c0-16-8-30-21-39-13-8-29-9-43-2l-565 263c-29 13-47 42-47 74 0 32 18 60 47 74l565 264c6 4 12 5 19 5z m226-275l-185 0c-26 0-48 21-48 48v172l-555-260c-11-5-17-15-17-28 0-12 6-22 17-27l555-259v172c0 27 22 48 48 48l185 1v133z" horiz-adv-x="1000" />

<glyph glyph-name="lunas" unicode="&#xe865;" d="M987 206c-12 42-24 83-36 125l-25 89c-14 48-28 97-42 146-10 38-44 63-83 63h-594c-39 0-73-25-84-63l-66-233c-12-43-24-85-36-127-13-46 14-95 60-108 155-44 293-66 423-66s268 22 423 66c46 13 73 62 60 108z m-437-115c-1 0-1-1-1-1-15-1-30-1-45-1-60 0-123 5-188 15l-68 12c-49 9-99 22-151 37-16 4-26 21-21 37 12 42 24 84 36 127l66 233c4 13 15 22 29 22h268v-57h-45c-16 0-29-13-29-29s13-29 29-29h148c16 0 28 13 28 29s-12 29-28 29h-46v57h269c14 0 25-9 29-22 13-49 27-98 41-146l26-89c11-42 23-84 35-125 5-16-5-32-21-37-98-28-189-47-275-56l-86-6z" horiz-adv-x="1000" />

<glyph glyph-name="irdelante" unicode="&#xe866;" d="M323 8c-8 0-16 2-24 7-13 8-21 23-21 38v179l-185 0c-26 0-48 21-48 47v142c0 26 22 48 48 48l185 0v178c0 16 8 30 21 38 13 9 29 10 44 3l564-263c29-13 47-42 47-74 0-32-18-61-47-74l-564-265c-6-3-13-4-20-4z m-225 276l184-1c26 0 48-21 48-48v-172l555 260c11 5 18 15 18 27 0 13-7 23-18 28l-555 259v-172c0-27-22-48-48-48l-184 0v-133z" horiz-adv-x="1000" />

<glyph glyph-name="infomarketing" unicode="&#xe867;" d="M757 145l-71 482c-1 8-7 15-15 17-7 3-16 0-22-6-62-68-112-111-163-140-48-27-105-44-173-52 0 0 0 0-1 0l-177-26c-11-2-20-13-18-24l3-18-44-7c-44-7-75-48-68-92 7-44 47-74 91-67l45 6 3-18c1-11 12-20 24-18l8 2 55-127c12-27 40-42 67-38 6 1 11 3 16 5l19 7c32 15 46 52 33 84l-40 91 19 3c0 0 1 0 1 0 69 13 126 13 180 1 57-13 118-39 197-86 5-2 9-3 14-3 3 1 6 2 9 4 6 4 10 12 8 20z m-157 114h-45v140c0 3 0 5-1 6 0 0-2 1-4 2l-13 5 5 21h55c2 0 3-1 3-3v-171z m-2 204c-4-4-11-7-20-7-10 0-17 3-21 7-4 4-6 10-6 20 0 9 2 15 6 20 5 4 11 6 21 6 10 0 16-2 20-6 5-5 7-11 7-20 0-10-2-16-7-20z m372-22l-179-25c-11-2-19-12-18-23s12-19 24-18l179 26c11 1 19 12 17 23-2 11-12 19-23 17z m-223 56c6 0 10 3 14 8l109 144c6 9 4 22-5 28-9 7-21 5-28-4l-109-144c-6-9-5-22 4-29 5-3 10-4 15-3z m45-215c-9 7-22 5-28-4-7-9-5-22 4-29l145-109c4-3 9-4 15-3 5 0 10 3 13 8 7 9 5 21-4 28l-145 109z" horiz-adv-x="1000" />

<glyph glyph-name="ko-medio-rombo" unicode="&#xe868;" d="M11 220c0 2 0 3 0 5-2 2-2 5-3 6-2 5-5 10-8 14 0 0 0 0 0 0 0 0 0 2-2 2 0 0 0 0 0 0v-49c0 0 0 0 0 0 7 8 10 15 13 22z m216 39c-7 0-11 0-14-1-5-2-8-3-10-6-3-4-5-8-6-13-2-5-2-11-2-17 0-6 0-13 2-17 1-5 3-10 6-13 3-3 6-4 10-6 4-2 9-2 14-2 11 0 20 4 25 10 4 6 7 15 7 29 0 15-3 24-7 30-7 3-14 6-25 6z m400 214c20 11 39 21 54 33 30 22 27 46-6 61-37 19-78 22-119 22-20 0-22-22-40-30-25 52-52 104-77 157-26 57-72 89-133 100-101 17-204 25-306 25v-75c100 0 200-7 298-21 24-3 44-11 57-31 31-56 61-114 93-178-150 11-300 16-448 16v-277c5 0 8 0 13 0 1 0 3-2 3-3 4-8 9-16 14-24 4-7 8-14 11-21 1-2 1-5 0-7-7-14-14-26-22-40-2-2-3-5-3-7-2-1-2-1-5-1-3 0-8 0-11 0v-217c130 0 261-7 391-14 18-2 22-8 22-25 0-52 1-52 53-52 59 0 118 0 178 0 28 0 40 11 39 39-5 91 6 180 12 269 5 69-3 137-14 206-1 38-28 66-54 95z m-480-306l-34 46-10-10v-36h-20v92c0 2 0 2 0 2 0 0-2 0-2 2l-6 1 2 9h26c2 0 2 0 2-1v-44l42 45h23l-45-48 45-58h-23z m130 28c-2-7-5-12-10-17-4-5-9-8-17-9-6-2-16-3-25-3-9 0-17 1-25 3-6 1-12 4-17 9-5 5-8 11-10 17-1 7-3 16-3 25 0 10 2 19 3 25 2 7 5 13 10 18 5 4 9 7 17 9 6 1 16 3 25 3 9 0 17-2 25-3 6-2 13-5 17-9 5-5 8-11 10-18 1-7 3-15 3-25 0-9 0-17-3-25z m254-134c-26 0-53 0-81 0-25 0-52 0-77 0-14 0-26 6-26 22 0 15 11 22 26 22 54 0 105 0 158 0 16 0 25-8 24-24 0-14-10-20-24-20z m7 109c-19 0-38 0-57 0-20 0-42 0-62 0-27 0-39 16-30 39 9 25 27 46 55 50 48 8 97 10 145 16 22 3 30-6 28-27-1-46-33-78-79-78z" horiz-adv-x="1000" />

<glyph glyph-name="nuevo-cliente-a" unicode="&#xe869;" d="M25 98c9-6 18-8 27-8 16 0 31 7 40 21 78 116 208 185 348 185 57 0 120-17 120-17 22-5 100-25 129-11 4 1 13 6 26 7 14 2 23-3 25 0 3 6-18 23-19 24-19 15-51 38-107 64 61 49 100 125 100 210 0 150-122 272-272 272s-272-122-272-272c0-84 39-160 99-210-104-36-194-105-257-199-14-22-9-52 13-66z m417 651c97 0 176-79 176-176s-79-175-176-175-176 78-176 175 79 176 176 176z m296-388c-141 0-255-113-255-255s114-255 255-255 256 113 256 255-114 255-256 255z m140-267c0-7-5-11-12-11h-99c-3 0-5-2-5-6v-99c0-7-5-11-12-11h-23c-7 0-12 4-12 11v99c0 4-2 6-6 6h-98c-7 0-12 5-12 11v24c0 7 5 11 12 11h98c4 0 6 2 6 6v99c0 7 5 11 12 11h23c7 0 12-5 12-11v-99c0-4 2-6 5-6h99c7 0 12-5 12-11v-24z" horiz-adv-x="1000" />

<glyph glyph-name="novedad" unicode="&#xe86a;" d="M876 751c-10 3-21 0-28-8-81-88-147-144-213-182-62-35-136-57-224-68-1 0-1 0-2 0l-230-34c-15-2-25-16-23-31l4-24-58-8c-57-9-97-62-88-119s62-97 119-88l58 9 3-24c3-15 16-25 31-23l11 2 72-166c15-35 52-54 87-49 7 2 14 3 21 6l24 11c41 18 60 66 43 108l-52 119 24 3c1 0 2 0 2 1 90 16 165 17 234 1 74-17 153-51 256-112 6-3 12-5 18-4 4 1 8 2 12 5 8 6 13 16 11 27l-93 626c-1 10-9 19-19 22z m-661-342l174 26c1-12 3-24 5-36 3-21 6-42 9-64l15-100-174-26-29 200z m-91-166c-27-4-52 15-56 42s15 52 42 56l58 9 14-98-58-9z m308-202c6-14 0-30-14-36l-24-10c-14-7-30 0-36 14l-66 152 82 12 58-132z m494 109c-86 47-156 75-223 90-69 16-140 17-224 5-2 0-3-1-5-1l-29 199 0 0c84 12 155 36 217 71 60 34 119 81 187 151l77-515z" horiz-adv-x="1000" />

<glyph glyph-name="objetivos2" unicode="&#xe86b;" d="M883 522h-125v96h201c0 0 0 0 0 0 16 0 29 13 29 29 0 8-4 15-10 21l-55 55 56 56c8 8 11 21 6 31-4 11-14 18-26 18h-229c-16 0-28-13-28-29v-277h-33c-58 0-105-47-105-105v-59c-15 7-31 12-48 12h-31c-57 0-105-47-105-105v-60c-14 8-30 12-47 12h-31c-58 0-105-47-105-105v-59c-14 7-30 11-48 11h-30c-58 0-105-47-105-105v-76c0-16 13-29 28-29h917c16 0 29 13 29 29v534c0 58-48 105-105 105z m-125 249h132l-27-28c-6-5-9-13-9-20 0-8 3-15 9-20l27-28h-132v96z m-687-812c0 26 21 48 48 48h30c27 0 48-22 48-48v-48h-126v48z m183 0v153c0 26 22 48 48 48h31c26 0 48-22 48-48v-201h-127v48z m184 153v153c0 26 21 48 47 48h31c27 0 48-22 48-48v-354h-126v201z m492-201h-309v506c0 27 21 48 48 48h214c26 0 48-21 48-48v-506z" horiz-adv-x="1000" />

<glyph glyph-name="neumaticos" unicode="&#xe86c;" d="M913 298h-814c-44 0-79-35-79-79v-237c0-44 35-79 79-79h814c44 0 79 35 79 79v237c0 44-35 79-79 79z m-814-57h55l-7-6c-11-12-11-29 0-41 6-5 13-8 20-8 8 0 15 3 21 8l46 47h80l-6-6c-11-12-11-29 0-41 5-5 13-8 20-8 7 0 14 3 20 8l47 47h80l-7-6c-11-12-11-29 0-41 6-5 13-8 20-8 8 0 15 3 20 8l47 47h80l-6-6c-12-12-12-29 0-41 5-5 12-8 20-8 7 0 14 3 20 8l46 47h79l-6-6c-11-12-11-29 0-41 5-5 13-8 20-8s15 3 20 8l47 47h38c12 0 22-10 22-22v-90h-858v90c0 12 10 22 22 22z m814-281h-55l7 6c11 11 11 29 0 41-12 11-30 11-41 0l-46-47h-79l6 6c11 11 11 29 0 41-11 11-29 11-40 0l-47-47h-80l7 6c11 11 11 29 0 41-11 11-29 11-40 0l-47-47h-80l6 6c12 11 12 29 0 41-11 11-29 11-40 0l-47-47h-80l6 6c12 11 12 29 0 41-11 11-29 11-40 0l-46-47h-38c-12 0-22 10-22 22v90h858v-90c0-12-10-22-22-22z m0 790h-814c-44 0-79-35-79-79v-237c0-44 35-79 79-79h814c44 0 79 35 79 79v237c0 44-35 79-79 79z m-814-57h38l46-46c6-6 13-9 20-9s15 3 20 9c12 11 12 29 0 40l-6 6h80l47-46c5-6 12-9 20-9 7 0 14 3 20 9 11 11 11 29 0 40l-7 6h80l47-46c5-6 13-9 20-9s15 3 20 9c11 11 11 29 0 40l-6 6h80l46-46c6-6 13-9 20-9s15 3 21 9c11 11 11 29 0 40l-7 6h79l47-46c5-6 13-9 20-9s14 3 20 9c11 11 11 29 0 40l-7 6h55c13 0 23-10 23-22v-90h-858v90c0 12 10 22 22 22z m814-281h-38l-46 47c-12 11-30 11-41 0-11-11-11-29 0-40l7-7h-79l-47 47c-11 11-29 11-40 0-11-11-11-29 0-40l6-7h-79l-47 47c-11 11-29 11-40 0-12-11-12-29 0-40l6-7h-80l-47 47c-11 11-29 11-40 0-11-11-11-29 0-40l7-7h-80l-47 47c-12 11-30 11-41 0-11-11-11-29 0-40l7-7h-55c-12 0-22 10-22 22v90h858v-90c0-12-10-22-22-22z" horiz-adv-x="1000" />

</font>
</defs>
</svg>
