<?xml version="1.0" standalone="no"?>
<!DOCTYPE svg PUBLIC "-//W3C//DTD SVG 1.1//EN" "http://www.w3.org/Graphics/SVG/1.1/DTD/svg11.dtd" >
<svg xmlns="http://www.w3.org/2000/svg" xmlns:xlink="http://www.w3.org/1999/xlink" version="1.1">
<metadata>
Created by FontForge 20170924 at Thu Feb  5 16:21:24 2015
 By www-data
Copyright (c) 2015 by Fontsmith Ltd. All rights reserved.
</metadata>
<defs>
<font id="RenaultLife" horiz-adv-x="576" >
  <font-face 
    font-family="Renault Life"
    font-weight="400"
    font-stretch="normal"
    units-per-em="1000"
    panose-1="2 0 5 4 4 0 0 2 0 4"
    ascent="745"
    descent="-255"
    x-height="486"
    cap-height="672"
    bbox="-113 -256 1204 1008"
    underline-thickness="128"
    underline-position="-128"
    unicode-range="U+000D-FB04"
  />
<missing-glyph horiz-adv-x="500" 
d="M12 672h476v-672h-476v672zM250 380l162 244h-324zM60 92l162 244l-162 244v-488zM278 336l162 -244v488zM250 292l-162 -244h324z" />
    <glyph glyph-name="fi" unicode="fi" horiz-adv-x="553" 
d="M162 486h311q9 0 9 -10v-476h-80v423h-240v-423h-80v411q0 8 -1 10.5t-9 4.5l-57 16l7 44h60v64q0 88 40.5 127t130.5 39q30 0 53.5 -4t37.5 -9l-13 -62q-15 5 -33.5 8t-35.5 3q-53 0 -76.5 -23t-23.5 -76v-67zM388 634q0 27 12 39t40 12q27 0 39.5 -12t12.5 -39
q0 -50 -52 -50q-28 0 -40 12t-12 38z" />
    <glyph glyph-name="fl" unicode="fl" horiz-adv-x="559" 
d="M400 644q-19 4 -46 6.5t-53 2.5q-42 0 -70 -8.5t-43 -22.5q-26 -24 -26 -79v-57h147v-63h-147v-423h-80v411q0 8 -1 10.5t-9 4.5l-57 16l7 44h60v55q0 87 47 129q25 22 67.5 34t103.5 12q21 0 44.5 -1.5t45.5 -4t41.5 -6.5t34.5 -8q9 -3 11.5 -7t2.5 -10v-611
q0 -6 1.5 -9t6.5 -5l30 -13l-8 -41h-101q-9 0 -9 10v634z" />
    <glyph glyph-name="f_f" unicode="ff" horiz-adv-x="634" 
d="M262 645q-53 0 -76.5 -23t-23.5 -76v-60h240v64q0 88 43 127t128 39q30 0 53.5 -4t37.5 -9l-13 -62q-15 5 -33.5 8t-35.5 3q-53 0 -76.5 -23t-23.5 -76v-67h147v-63h-147v-423h-80v423h-240v-423h-80v411q0 8 -1 10.5t-9 4.5l-57 16l7 44h60v57q0 88 43 127t128 39
q27 0 52 -3t47 -11l-13 -62q-15 5 -36 8.5t-41 3.5z" />
    <glyph glyph-name="f_f_i" unicode="ffi" horiz-adv-x="872" 
d="M482 0h-80v423h-240v-423h-80v411q0 8 -1 10.5t-9 4.5l-57 16l7 44h60v57q0 88 43 127t128 39q27 0 52 -3t47 -11l-13 -62q-15 5 -36 8.5t-41 3.5q-53 0 -76.5 -23t-23.5 -76v-60h240v64q0 88 43 127t128 39q30 0 53.5 -4t37.5 -9l-13 -62q-15 5 -33.5 8t-35.5 3
q-53 0 -76.5 -23t-23.5 -76v-67h310q9 0 9 -10v-476h-80v423h-239v-423zM707 634q0 27 12 39t40 12q27 0 39.5 -12t12.5 -39q0 -50 -52 -50q-28 0 -40 12t-12 38z" />
    <glyph glyph-name="f_f_l" unicode="ffl" horiz-adv-x="879" 
d="M621 653q-42 0 -70 -8.5t-43 -22.5q-26 -24 -26 -79v-57h147v-63h-147v-423h-80v423h-240v-423h-80v411q0 8 -1 10.5t-9 4.5l-57 16l7 44h60v57q0 88 43 127t128 39q27 0 52 -3t47 -11l-13 -62q-15 5 -36 8.5t-41 3.5q-53 0 -76.5 -23t-23.5 -76v-60h240v55q0 87 47 129
q25 22 67.5 34t103.5 12q21 0 44.5 -1.5t45.5 -4t41.5 -6.5t34.5 -8q9 -3 11.5 -7t2.5 -10v-611q0 -6 1.5 -9t6.5 -5l30 -13l-8 -41h-101q-9 0 -9 10v634q-19 4 -46 6.5t-53 2.5z" />
    <glyph glyph-name="f_t" unicode="ft" horiz-adv-x="685" 
d="M398 423h-236v-423h-80v411q0 8 -1 10.5t-9 4.5l-57 16l7 44h60v64q0 88 40.5 127t130.5 39q30 0 53.5 -4t37.5 -9l-13 -62q-15 5 -33.5 8t-35.5 3q-53 0 -76.5 -23t-23.5 -76v-67h236v145h80v-145h166v-63h-166v-274q0 -52 22.5 -74.5t73.5 -22.5q18 0 36 2.5t35 6.5
v-64q-38 -9 -83 -9q-86 0 -125 37t-39 121v277z" />
    <glyph glyph-name="t_t" unicode="tt" horiz-adv-x="720" 
d="M433 423h-272v-274q0 -52 22.5 -74.5t73.5 -22.5q18 0 36 2.5t35 6.5v-64q-38 -9 -83 -9q-86 0 -125 37t-39 121v265q0 8 -1 10.5t-9 4.5l-57 16l7 44h60v145h80v-145h272v145h80v-145h167v-63h-167v-274q0 -52 22.5 -74.5t73.5 -22.5q18 0 36 2.5t35 6.5v-64
q-38 -9 -83 -9q-86 0 -125 37t-39 121v277z" />
    <glyph glyph-name=".notdef" horiz-adv-x="500" 
d="M12 672h476v-672h-476v672zM250 380l162 244h-324zM60 92l162 244l-162 244v-488zM278 336l162 -244v488zM250 292l-162 -244h324z" />
    <glyph glyph-name=".null" horiz-adv-x="0" 
 />
    <glyph glyph-name=".null" horiz-adv-x="0" 
 />
    <glyph glyph-name="nonmarkingreturn" unicode="&#xd;" horiz-adv-x="224" 
 />
    <glyph glyph-name="space" unicode=" " horiz-adv-x="224" 
 />
    <glyph glyph-name="nonbreakingspace" unicode="&#xa0;" horiz-adv-x="224" 
 />
    <glyph glyph-name="A" unicode="A" horiz-adv-x="648" 
d="M544 0q-11 40 -24.5 85.5t-29.5 93.5h-332q-16 -48 -29.5 -93.5t-24.5 -85.5h-84q21 80 51.5 174t65.5 186t71.5 174t68.5 138h94q32 -56 68.5 -138t71.5 -174t65.5 -186t51.5 -174h-84zM324 598q-17 -33 -35.5 -74t-37 -87t-37 -96t-35.5 -100h290q-17 50 -35.5 100
t-37.5 96t-37 87t-35 74z" />
    <glyph glyph-name="B" unicode="B" horiz-adv-x="643" 
d="M86 609q0 9 -10 13l-30 13l7 37h316q107 0 154 -42.5t47 -134.5q0 -115 -89 -148q113 -28 113 -164q0 -96 -49 -139.5t-160 -43.5h-299v609zM166 63h205q76 0 109 29t33 95t-33 95t-109 29h-205v-248zM166 373h189q72 0 103.5 28t31.5 90t-31.5 90t-103.5 28h-189v-236z
" />
    <glyph glyph-name="C" unicode="C" horiz-adv-x="604" 
d="M49 336q0 92 18.5 158t57.5 108t99.5 62t144.5 20q65 0 118 -9t77 -17l-12 -65q-38 11 -81.5 17.5t-90.5 6.5q-65 0 -111.5 -16t-76.5 -49.5t-44 -87t-14 -128.5t14 -128.5t44 -87t76.5 -49.5t111.5 -16q47 0 91 6.5t88 19.5v-68q-87 -25 -190 -25q-84 0 -144.5 20
t-99.5 62t-57.5 108t-18.5 158z" />
    <glyph glyph-name="D" unicode="D" horiz-adv-x="707" 
d="M169 66h133q72 0 123.5 15t84.5 48t48.5 84t15.5 123t-15.5 123t-48.5 84t-84.5 48t-123.5 15h-133v-540zM308 672q93 0 159 -19t108.5 -60t62.5 -104.5t20 -152.5t-20 -152.5t-62.5 -104.5t-108.5 -60t-159 -19h-222v609q0 9 -10 13l-30 13l7 37h255z" />
    <glyph glyph-name="E" unicode="E" horiz-adv-x="590" 
d="M537 672v-66h-368v-233h296v-62h-296v-245h376v-66h-459v609q0 9 -10 13l-30 13l7 37h484z" />
    <glyph glyph-name="F" unicode="F" horiz-adv-x="574" 
d="M537 672v-66h-368v-233h296v-64h-296v-309h-83v609q0 9 -10 13l-30 13l7 37h484z" />
    <glyph glyph-name="G" unicode="G" horiz-adv-x="673" 
d="M611 351v-336q-111 -27 -234 -27q-86 0 -148 20t-102 62t-59 108t-19 158q0 96 20.5 162t62.5 107.5t106.5 60t151.5 18.5q33 0 64.5 -2.5t58.5 -6.5t48.5 -8.5t33.5 -8.5l-12 -65q-38 11 -86.5 17.5t-95.5 6.5q-70 0 -121 -14.5t-84 -48t-49 -87t-16 -131.5
q0 -75 14.5 -128.5t45 -87.5t78.5 -50t116 -16q79 0 149 16v222h-172v59h249z" />
    <glyph glyph-name="H" unicode="H" horiz-adv-x="739" 
d="M169 375h404v297h83v-672h-83v309h-404v-309h-83v609q0 9 -10 13l-30 13l7 37h107q9 0 9 -10v-287z" />
    <glyph glyph-name="I" unicode="I" horiz-adv-x="254" 
d="M170 0h-83v609q0 9 -10 13l-30 13l7 37h107q9 0 9 -10v-662z" />
    <glyph glyph-name="J" unicode="J" horiz-adv-x="439" 
d="M356 194q0 -108 -50 -157t-161 -49q-64 0 -116 13v67q27 -6 53 -9.5t51 -3.5q75 0 107.5 33t32.5 109v475h83v-478z" />
    <glyph glyph-name="K" unicode="K" horiz-adv-x="607" 
d="M169 343l314 329h97l-294 -311l302 -361h-97l-256 309l-66 -68v-241h-83v609q0 9 -10 13l-30 13l7 37h107q9 0 9 -10v-319z" />
    <glyph glyph-name="L" unicode="L" horiz-adv-x="521" 
d="M169 66h325v-66h-408v609q0 9 -10 13l-30 13l7 37h107q9 0 9 -10v-596z" />
    <glyph glyph-name="M" unicode="M" horiz-adv-x="819" 
d="M411 280l245 392h80v-672h-77v547l-219 -347h-25q-12 0 -19.5 0.5t-12.5 3t-9.5 8t-10.5 15.5l-200 317v-544h-77v609q0 9 -10 13l-30 13l7 37h92q15 0 20 -4t15 -20z" />
    <glyph glyph-name="N" unicode="N" horiz-adv-x="739" 
d="M86 609q0 9 -10 13l-30 13l7 37h94q14 0 19.5 -2.5t10.5 -10.5l402 -544v557h77v-672h-81l-412 557v-557h-77v609z" />
    <glyph glyph-name="O" unicode="O" horiz-adv-x="737" 
d="M49 336q0 92 18.5 158t57.5 108t99.5 62t144.5 20t144.5 -20t99.5 -62t57 -108t18 -158t-18 -158t-57 -108t-99.5 -62t-144.5 -20t-144.5 20t-99.5 62t-57.5 108t-18.5 158zM134 336q0 -75 13 -128.5t41.5 -87t73 -49.5t107.5 -16q62 0 106.5 16t73 49.5t42 87
t13.5 128.5t-13.5 128.5t-42 87t-73 49.5t-106.5 16q-63 0 -107.5 -16t-73 -49.5t-41.5 -87t-13 -128.5z" />
    <glyph glyph-name="P" unicode="P" horiz-adv-x="627" 
d="M166 324h178q86 0 123.5 33t37.5 108t-37.5 108t-123.5 33h-178v-282zM350 672q125 0 180.5 -49t55.5 -158q0 -108 -56 -157t-180 -49h-184v-259h-80v609q0 9 -10 13l-30 13l7 37h297z" />
    <glyph glyph-name="Q" unicode="Q" horiz-adv-x="737" 
d="M475 -2q-23 -5 -50 -7.5t-56 -2.5q-84 0 -144.5 20t-99.5 62t-57.5 108t-18.5 158t18.5 158t57.5 108t99.5 62t144.5 20t144.5 -20t99.5 -62t57 -108t18 -158q0 -127 -34.5 -203.5t-109.5 -112.5l91 -142h-84zM131 336q0 -76 13.5 -129.5t42 -88t74 -50.5t108.5 -16
q19 0 36 1.5t32 3.5l-62 98h84l47 -74q53 30 77 91.5t24 163.5q0 75 -13.5 128.5t-42 87t-74 49.5t-108.5 16t-108.5 -16t-74 -49.5t-42 -87t-13.5 -128.5z" />
    <glyph glyph-name="R" unicode="R" horiz-adv-x="643" 
d="M166 339h183q84 0 120 30.5t36 103.5t-36 104t-120 31h-183v-269zM166 275v-275h-80v609q0 9 -10 13l-30 13l7 37h305q121 0 174.5 -46.5t53.5 -152.5q0 -89 -39.5 -134.5t-126.5 -54.5l180 -284h-91l-171 275h-172z" />
    <glyph glyph-name="S" unicode="S" horiz-adv-x="588" 
d="M56 497q0 88 59 137.5t187 49.5q56 0 109 -8.5t98 -22.5l-12 -64q-48 16 -94 23t-95 7q-91 0 -131.5 -26.5t-40.5 -93.5q0 -33 17 -53.5t45.5 -34t64 -23t73 -19t73.5 -22.5t64.5 -34.5t45.5 -53.5t17 -80q0 -98 -61 -144.5t-189 -46.5q-58 0 -115 8t-111 25v67
q55 -18 109.5 -26.5t110.5 -8.5q93 0 134.5 28.5t41.5 95.5q0 46 -29.5 71t-74 39.5t-96.5 26t-96.5 31.5t-74 55t-29.5 97z" />
    <glyph glyph-name="T" unicode="T" horiz-adv-x="593" 
d="M255 606h-234v66h551v-66h-234v-606h-83v606z" />
    <glyph glyph-name="U" unicode="U" horiz-adv-x="732" 
d="M165 263q0 -111 47 -159.5t155 -48.5q107 0 154.5 48.5t47.5 159.5v409h83v-415q0 -71 -16.5 -122t-51 -83.5t-88.5 -48t-129 -15.5t-129 15.5t-88.5 48t-51 83.5t-16.5 122v352q0 9 -10 13l-30 13l7 37h107q9 0 9 -10v-399z" />
    <glyph glyph-name="V" unicode="V" horiz-adv-x="648" 
d="M324 74q28 53 59 128t60.5 157t56 164t44.5 149h84q-21 -80 -51.5 -174t-65.5 -186t-71.5 -174t-68.5 -138h-94q-32 56 -68.5 138t-71.5 174t-65.5 186t-51.5 174h84q18 -67 44.5 -149t56 -164t60.5 -157t59 -128z" />
    <glyph glyph-name="W" unicode="W" horiz-adv-x="974" 
d="M487 538q-5 -30 -12.5 -66t-17 -74.5t-20 -77t-20.5 -71.5q-18 -60 -40 -122.5t-46 -126.5h-93q-30 76 -60 166t-56.5 180.5t-47.5 175t-34 150.5h82q4 -24 11.5 -56t16.5 -70t20 -79.5t22 -83.5q25 -95 49 -171t44 -127h2q20 51 43 127t49 171q11 42 22 82t20 76t16 66
t12 51h77q9 -45 28 -117.5t42 -157.5q26 -95 49 -171t43 -127h2q20 51 44 127t49 171q11 42 22 83.5t20 79.5t16 70t12 56h81q-13 -66 -34 -150.5t-47.5 -175t-56 -180.5t-59.5 -166h-93q-48 128 -86 249q-11 33 -21.5 71.5t-19.5 77t-17 74.5t-12 66h-1z" />
    <glyph glyph-name="X" unicode="X" horiz-adv-x="647" 
d="M272 342l-235 330h92l195 -275l194 275h93l-235 -330l243 -342h-94l-201 287l-202 -287h-93z" />
    <glyph glyph-name="Y" unicode="Y" horiz-adv-x="599" 
d="M258 287l-246 385h92l197 -313l195 313h92l-247 -385v-287h-83v287z" />
    <glyph glyph-name="Z" unicode="Z" horiz-adv-x="620" 
d="M463 606h-411v66h515v-58l-418 -548h426v-66h-531v58z" />
    <glyph glyph-name="a" unicode="a" horiz-adv-x="530" 
d="M382 196q-56 22 -130 22q-69 0 -99 -19.5t-30 -66.5q0 -45 29 -65.5t92 -20.5q72 0 105 25.5t33 80.5v44zM393 50q-44 -62 -164 -62q-96 0 -140.5 34.5t-44.5 108.5t46.5 108t149.5 34q80 0 142 -21v67q0 63 -33.5 89.5t-111.5 26.5q-75 0 -150 -24v64q38 11 77 17t82 6
q113 0 163 -43.5t50 -141.5v-245q0 -6 1.5 -9t6.5 -5l30 -13l-8 -41h-83q-5 0 -6.5 1t-2.5 7z" />
    <glyph glyph-name="b" unicode="b" horiz-adv-x="564" 
d="M70 636q0 6 -1.5 9t-6.5 5l-30 13l8 41h101q9 0 9 -10v-258q24 32 62.5 47t98.5 15q111 0 161 -60t50 -195t-50 -195t-161 -60q-64 0 -105.5 18t-67.5 50l-6 -56h-62v636zM292 434q-76 0 -109 -32t-33 -107v-197q24 -19 58.5 -32.5t83.5 -13.5q79 0 113.5 44.5
t34.5 146.5t-34.5 146.5t-113.5 44.5z" />
    <glyph glyph-name="c" unicode="c" horiz-adv-x="463" 
d="M42 243q0 134 57 194.5t183 60.5q54 0 90.5 -6.5t56.5 -14.5l-13 -62q-21 8 -51 13.5t-72 5.5q-90 0 -129.5 -44.5t-39.5 -146.5t39.5 -146.5t129.5 -44.5q68 0 131 20v-65q-61 -19 -142 -19q-126 0 -183 60t-57 195z" />
    <glyph glyph-name="d" unicode="d" horiz-adv-x="573" 
d="M273 434q-80 0 -114.5 -44.5t-34.5 -146.5t34.5 -146.5t114.5 -44.5q49 0 83.5 13.5t58.5 32.5v197q0 75 -33 107t-109 32zM426 56q-25 -32 -67 -50t-105 -18q-112 0 -162 60t-50 195t50 195t162 60q59 0 97.5 -15t63.5 -47v268h80v-636q0 -6 1.5 -9t6.5 -5l30 -13
l-8 -41h-85q-5 0 -6.5 1t-2.5 7z" />
    <glyph glyph-name="e" unicode="e" horiz-adv-x="523" 
d="M42 243q0 67 13.5 115.5t41.5 79.5t71.5 45.5t104.5 14.5q111 0 160.5 -58.5t49.5 -188.5v-16t-1 -15h-361q3 -91 46.5 -130t141.5 -39q77 0 155 24v-64q-37 -12 -76.5 -17.5t-84.5 -5.5q-137 0 -199 60t-62 195zM273 440q-78 0 -114 -38.5t-38 -126.5h285
q-2 88 -32.5 126.5t-100.5 38.5z" />
    <glyph glyph-name="f" unicode="f" horiz-adv-x="314" 
d="M162 486h146v-63h-146v-423h-80v411q0 8 -1 10.5t-9 4.5l-57 16l7 44h60v64q0 88 40.5 127t130.5 39q30 0 53.5 -4t37.5 -9l-13 -62q-15 5 -33.5 8t-35.5 3q-53 0 -76.5 -23t-23.5 -76v-67z" />
    <glyph glyph-name="g" unicode="g" horiz-adv-x="563" 
d="M495 486v-507q0 -60 -17 -98.5t-46 -61t-67.5 -31t-81.5 -8.5q-32 0 -61 2.5t-45 5.5v64q26 -4 53 -6t49 -2q136 0 136 121v85q-24 -32 -63 -47t-98 -15q-112 0 -162 60t-50 195t50 195t162 60q51 0 95.5 -13.5t78.5 -39.5l4 41h63zM415 398q-24 14 -63 25t-79 11
q-80 0 -114.5 -44.5t-34.5 -146.5t34.5 -146.5t114.5 -44.5q76 0 109 32t33 107v207z" />
    <glyph glyph-name="h" unicode="h" horiz-adv-x="564" 
d="M306 498q101 0 144.5 -45t43.5 -148v-237q0 -6 1.5 -9t6.5 -5l30 -13l-8 -41h-101q-9 0 -9 10v293q0 71 -28 100t-94 29q-24 0 -46.5 -3.5t-41.5 -9t-33.5 -11.5t-22.5 -12v-396h-80v636q0 6 -1.5 9t-6.5 5l-30 13l8 41h101q9 0 9 -10v-252q26 24 65 40t93 16z" />
    <glyph glyph-name="i" unicode="i" horiz-adv-x="230" 
d="M49 486h101q9 0 9 -10v-476h-80v418q0 6 -1.5 9t-6.5 5l-30 13zM65 634q0 27 12 39t40 12q27 0 39.5 -12t12.5 -39q0 -50 -52 -50q-28 0 -40 12t-12 38z" />
    <glyph glyph-name="j" unicode="j" horiz-adv-x="230" 
d="M159 -54q0 -75 -35 -119t-117 -44h-22t-23 2v62q9 -1 17 -1h13q52 0 69.5 25t17.5 75v472q0 6 -1.5 9t-6.5 5l-30 13l8 41h101q9 0 9 -10v-530zM65 634q0 27 12 39t40 12q27 0 39.5 -12t12.5 -39q0 -50 -52 -50q-28 0 -40 12t-12 38z" />
    <glyph glyph-name="k" unicode="k" horiz-adv-x="477" 
d="M148 261l212 225h93l-202 -216l206 -270h-91l-165 220l-53 -53v-167h-80v636q0 6 -1.5 9t-6.5 5l-30 13l8 41h101q9 0 9 -10v-433z" />
    <glyph glyph-name="l" unicode="l" horiz-adv-x="231" 
d="M152 68q0 -6 1.5 -9t6.5 -5l30 -13l-8 -41h-101q-9 0 -9 10v626q0 6 -1.5 9t-6.5 5l-30 13l8 41h101q9 0 9 -10v-626z" />
    <glyph glyph-name="m" unicode="m" horiz-adv-x="874" 
d="M453 432q32 30 75.5 48t97.5 18q94 0 136 -42.5t42 -138.5v-249q0 -6 1.5 -9t6.5 -5l30 -13l-8 -41h-101q-9 0 -9 10v304q0 63 -26 90.5t-86 27.5q-46 0 -82.5 -10.5t-58.5 -28.5q5 -17 6.5 -34t1.5 -39v-320h-80v314q0 63 -26 90.5t-86 27.5q-22 0 -42.5 -3.5t-38 -9
t-31.5 -11.5t-21 -12v-396h-80v418q0 6 -1.5 9t-6.5 5l-30 13l8 41h101q9 0 9 -10v-30q26 23 62 37.5t88 14.5q60 0 93.5 -16.5t55.5 -49.5z" />
    <glyph glyph-name="n" unicode="n" horiz-adv-x="570" 
d="M500 68q0 -6 1.5 -9t6.5 -5l30 -13l-8 -41h-101q-9 0 -9 10v293q0 71 -28 100t-94 29q-24 0 -46.5 -3.5t-41.5 -9t-33.5 -11.5t-22.5 -12v-396h-80v418q0 6 -1.5 9t-6.5 5l-30 13l8 41h101q9 0 9 -10v-34q26 24 65 40t93 16q101 0 144.5 -45t43.5 -148v-237z" />
    <glyph glyph-name="o" unicode="o" horiz-adv-x="563" 
d="M42 243q0 134 57 194.5t183 60.5t182.5 -60.5t56.5 -194.5q0 -135 -56.5 -195t-182.5 -60t-183 60t-57 195zM124 243q0 -102 37 -146.5t121 -44.5q83 0 120 44.5t37 146.5t-37 146.5t-120 44.5q-84 0 -121 -44.5t-37 -146.5z" />
    <glyph glyph-name="p" unicode="p" horiz-adv-x="568" 
d="M74 418q0 6 -1.5 9t-6.5 5l-30 13l8 41h101q9 0 9 -10v-40q23 30 60 46t101 16q111 0 161 -60t50 -195t-50 -195t-161 -60q-60 0 -97.5 15t-63.5 38v-249h-80v626zM296 434q-76 0 -109 -32t-33 -107v-197q24 -19 58.5 -32.5t83.5 -13.5q79 0 113.5 44.5t34.5 146.5
t-34.5 146.5t-113.5 44.5z" />
    <glyph glyph-name="q" unicode="q" horiz-adv-x="562" 
d="M495 -201l-80 -14v257q-25 -23 -63.5 -38.5t-97.5 -15.5q-112 0 -162 60t-50 195t50 195t162 60q63 0 105 -16.5t67 -52.5l6 57h63v-687zM273 434q-80 0 -114.5 -44.5t-34.5 -146.5t34.5 -146.5t114.5 -44.5q49 0 83.5 13.5t58.5 32.5v197q0 75 -33 107t-109 32z" />
    <glyph glyph-name="r" unicode="r" horiz-adv-x="365" 
d="M74 418q0 6 -1.5 9t-6.5 5l-30 13l8 41h101q9 0 9 -10v-49q56 71 158 71q13 0 26 -1t21 -3l-14 -70q-9 2 -20 4t-25 2q-53 0 -86.5 -15.5t-59.5 -37.5v-377h-80v418z" />
    <glyph glyph-name="s" unicode="s" horiz-adv-x="465" 
d="M50 358q0 71 51 105.5t142 34.5q42 0 81 -5.5t76 -16.5l-13 -62q-67 22 -140 22q-62 0 -91 -19.5t-29 -57.5q0 -30 21.5 -44.5t54.5 -23t70.5 -15.5t70.5 -22.5t54.5 -42.5t21.5 -76q0 -73 -50.5 -110t-144.5 -37t-170 24v65q79 -27 164 -27q64 0 94 22t30 62
q0 33 -21.5 49t-54.5 25t-70.5 15.5t-70.5 20.5t-54.5 40t-21.5 74z" />
    <glyph glyph-name="t" unicode="t" horiz-adv-x="368" 
d="M81 411q0 8 -1 10.5t-9 4.5l-57 16l7 44h60v145h80v-145h167v-63h-167v-274q0 -52 22.5 -74.5t73.5 -22.5q18 0 36 2.5t35 6.5v-64q-38 -9 -83 -9q-86 0 -125 37t-39 121v265z" />
    <glyph glyph-name="u" unicode="u" horiz-adv-x="562" 
d="M152 191q0 -75 30.5 -107t102.5 -32q71 0 102 32t31 107v295h80v-301q0 -104 -50.5 -150.5t-162.5 -46.5q-113 0 -163 46.5t-50 150.5v235q0 5 -7 9l-31 15l7 42h102q9 0 9 -10v-285z" />
    <glyph glyph-name="v" unicode="v" horiz-adv-x="508" 
d="M213 0q-29 57 -56 118.5t-51.5 124.5t-45 124.5t-36.5 118.5h81q13 -48 30.5 -102t37.5 -108.5t40.5 -106t40.5 -95.5q19 44 40 95.5t41 106t37.5 108.5t30.5 102h81q-16 -57 -36.5 -118.5t-45 -124.5t-52 -124.5t-55.5 -118.5h-82z" />
    <glyph glyph-name="w" unicode="w" horiz-adv-x="797" 
d="M773 486q-17 -58 -37.5 -124t-43 -131.5t-45.5 -125t-43 -105.5h-87q-17 38 -34.5 86.5t-35.5 102.5q-7 20 -14 44t-13.5 48.5t-12 46.5t-8.5 39h-1q-3 -17 -8.5 -39t-12 -46.5t-13.5 -48.5t-14 -44q-18 -54 -35.5 -102.5t-34.5 -86.5h-87q-20 46 -43 105.5t-45.5 125
t-43.5 131.5t-37 124h80q7 -24 15 -52.5t17 -57t17.5 -56.5t15.5 -50q17 -54 34 -104.5t32 -92.5h2q15 42 32.5 92.5t34.5 104.5q7 22 15 48t15.5 53t15 53t13.5 50h71q6 -24 13.5 -50t15.5 -53t16 -53t15 -48q17 -54 34.5 -104.5t32.5 -92.5h2q15 42 32 92.5t34 104.5
q7 22 15.5 50t17.5 56.5t17 57t15 52.5h79z" />
    <glyph glyph-name="x" unicode="x" horiz-adv-x="500" 
d="M201 247l-168 239h86l131 -189l132 189h85l-168 -239l174 -247h-88l-135 196l-138 -196h-85z" />
    <glyph glyph-name="y" unicode="y" horiz-adv-x="500" 
d="M10 486h87l161 -389l139 389h85l-208 -554q-16 -43 -33 -72t-39 -47t-49.5 -25.5t-64.5 -7.5h-16.5t-16.5 2v62q7 -1 14.5 -1h12.5q23 0 40.5 5t31.5 16.5t25 31t22 48.5l19 53z" />
    <glyph glyph-name="z" unicode="z" horiz-adv-x="481" 
d="M46 55l284 368h-276v63h377v-56l-284 -367h292v-63h-393v55z" />
    <glyph glyph-name="ampersand" unicode="&#x26;" horiz-adv-x="673" 
d="M491 82q-36 -47 -89 -70.5t-119 -23.5q-119 0 -176.5 46t-57.5 143q0 63 37 114t117 86q-49 43 -69.5 80.5t-20.5 77.5q0 149 182 149q89 0 131 -36t42 -108q0 -57 -37 -100t-118 -82l171 -172q12 30 16.5 65.5t4.5 74.5h75q-1 -57 -11 -107t-33 -89l127 -130h-91z
M127 182q0 -131 156 -131q104 0 159 82l-197 199q-61 -29 -89.5 -66t-28.5 -84zM293 623q-54 0 -79 -22.5t-25 -68.5q0 -31 18.5 -60t61.5 -67q65 29 94 60t29 71q0 44 -23.5 65.5t-75.5 21.5z" />
    <glyph glyph-name="at" unicode="@" horiz-adv-x="977" 
d="M57 243q0 118 25.5 202.5t79 139t137.5 80t201 25.5q111 0 190.5 -22.5t130.5 -70.5t75 -123t24 -180q0 -139 -42.5 -205t-141.5 -66q-43 0 -72.5 16t-42.5 46q-23 -32 -60.5 -47t-93.5 -15q-98 0 -140.5 52t-42.5 168t42.5 168t140.5 52q104 0 145 -58l4 46h64v-297
q0 -37 16 -53.5t52 -16.5q56 0 79 50t23 154q0 90 -20 155t-63 106t-109.5 60.5t-160.5 19.5q-98 0 -168 -22t-115 -68.5t-66 -119.5t-21 -176t22 -176t69.5 -119.5t122 -68.5t178.5 -22q140 0 274 44v-64q-131 -41 -277 -41q-121 0 -208 25.5t-142.5 79.5t-82 138.5
t-26.5 203.5zM363 243q0 -84 28.5 -120t94.5 -36q63 0 90 26.5t27 88.5v82q0 62 -27 88.5t-90 26.5q-66 0 -94.5 -36t-28.5 -120z" />
    <glyph glyph-name="exclam" unicode="!" horiz-adv-x="247" 
d="M83 672h81l-4 -468h-73zM70 43q0 29 12.5 41t41.5 12t41.5 -12t12.5 -41q0 -28 -12.5 -40t-41.5 -12t-41.5 12t-12.5 40z" />
    <glyph glyph-name="exclamdown" unicode="&#xa1;" horiz-adv-x="247" 
d="M164 -186h-81l4 468h73zM178 443q0 -29 -12.5 -41t-41.5 -12t-41.5 12t-12.5 41q0 28 12.5 40t41.5 12t41.5 -12t12.5 -40z" />
    <glyph glyph-name="question" unicode="?" horiz-adv-x="444" 
d="M148 204v13q0 42 13 71.5t32 52t41.5 41t41.5 37.5t32 40.5t13 51.5q0 59 -32.5 84t-107.5 25q-73 0 -150 -28v65q76 27 159 27q113 0 162.5 -39.5t49.5 -128.5q0 -41 -14 -70.5t-34.5 -52.5t-44.5 -42t-44.5 -39t-34.5 -44t-14 -56v-8h-68zM128 43q0 29 12.5 41t41.5 12
t41.5 -12t12.5 -41q0 -28 -12.5 -40t-41.5 -12t-41.5 12t-12.5 40z" />
    <glyph glyph-name="questiondown" unicode="&#xbf;" horiz-adv-x="412" 
d="M296 282v-14q0 -41 -13 -70.5t-32 -52t-41.5 -41t-41.5 -37.5t-32 -40.5t-13 -51.5q0 -59 32.5 -84t107.5 -25q35 0 72.5 7t76.5 21v-65q-77 -27 -158 -27q-113 0 -163 39.5t-50 127.5q0 41 14 71t34.5 53t45 42t45 39t34.5 43.5t14 56.5v8h68zM316 443q0 -29 -12.5 -41
t-41.5 -12t-41.5 12t-12.5 41q0 28 12.5 40t41.5 12t41.5 -12t12.5 -40z" />
    <glyph glyph-name="asterisk" unicode="*" horiz-adv-x="471" 
d="M264 513l151 49l18 -54l-151 -49l93 -129l-46 -33l-93 129l-93 -129l-46 33l93 129l-151 49l17 54l151 -49v159h57v-159z" />
    <glyph glyph-name="period" unicode="." horiz-adv-x="231" 
d="M61 44q0 29 13 41t42 12t41.5 -12t12.5 -41t-12.5 -41t-41.5 -12t-42 12t-13 41z" />
    <glyph glyph-name="comma" unicode="," horiz-adv-x="231" 
d="M96 -144h-65l57 227h84z" />
    <glyph glyph-name="colon" unicode=":" horiz-adv-x="247" 
d="M69 44q0 29 13 41t42 12t41.5 -12t12.5 -41t-12.5 -41t-41.5 -12t-42 12t-13 41zM69 442q0 29 13 41t42 12t41.5 -12t12.5 -41t-12.5 -41t-41.5 -12t-42 12t-13 41z" />
    <glyph glyph-name="semicolon" unicode=";" horiz-adv-x="247" 
d="M104 -144h-65l57 227h84zM69 442q0 29 13 41t42 12t41.5 -12t12.5 -41t-12.5 -41t-41.5 -12t-42 12t-13 41z" />
    <glyph glyph-name="ellipsis" unicode="&#x2026;" horiz-adv-x="757" 
d="M61 44q0 29 13 41t42 12t41.5 -12t12.5 -41t-12.5 -41t-41.5 -12t-42 12t-13 41zM324 44q0 29 13 41t42 12t41.5 -12t12.5 -41t-12.5 -41t-41.5 -12t-42 12t-13 41zM587 44q0 29 13 41t42 12t41.5 -12t12.5 -41t-12.5 -41t-41.5 -12t-42 12t-13 41z" />
    <glyph glyph-name="periodcentered" unicode="&#xb7;" horiz-adv-x="231" 
d="M61 247q0 29 13 41t42 12t41.5 -12t12.5 -41t-12.5 -41t-41.5 -12t-42 12t-13 41z" />
    <glyph glyph-name="uni22C5" unicode="&#x22c5;" horiz-adv-x="231" 
d="M61 247q0 29 13 41t42 12t41.5 -12t12.5 -41t-12.5 -41t-41.5 -12t-42 12t-13 41z" />
    <glyph glyph-name="bullet" unicode="&#x2022;" horiz-adv-x="480" 
d="M96 288q0 30 11 56t30.5 45.5t46 31t56.5 11.5t56 -11.5t45.5 -31t31 -45.5t11.5 -56t-11.5 -56.5t-31 -46t-45.5 -30.5t-56 -11t-56.5 11t-46 30.5t-30.5 46t-11 56.5z" />
    <glyph glyph-name="slash" unicode="/" horiz-adv-x="384" 
d="M304 704h71l-295 -832h-71z" />
    <glyph glyph-name="parenleft" unicode="(" horiz-adv-x="311" 
d="M73 288q0 121 33.5 226t99.5 190h80q-68 -87 -102.5 -192.5t-34.5 -223.5t34.5 -223.5t102.5 -192.5h-80q-66 85 -99.5 190t-33.5 226z" />
    <glyph glyph-name="brokenbar" unicode="&#xa6;" horiz-adv-x="240" 
d="M154 688v-384h-68v384h68zM86 -176v384h68v-384h-68z" />
    <glyph glyph-name="parenright" unicode=")" horiz-adv-x="311" 
d="M238 288q0 -121 -33.5 -226t-99.5 -190h-80q68 87 102.5 192.5t34.5 223.5t-34.5 223.5t-102.5 192.5h80q66 -85 99.5 -190t33.5 -226z" />
    <glyph glyph-name="bracketleft" unicode="[" horiz-adv-x="311" 
d="M95 704h190v-63h-116v-706h116v-63h-190v832z" />
    <glyph glyph-name="backslash" unicode="\" horiz-adv-x="384" 
d="M9 704h71l295 -832h-71z" />
    <glyph glyph-name="bracketright" unicode="]" horiz-adv-x="311" 
d="M217 -128h-191v63h117v706h-117v63h191v-832z" />
    <glyph glyph-name="braceleft" unicode="{" horiz-adv-x="311" 
d="M10 319h11q48 0 69 21t21 69v146q0 78 35.5 113.5t116.5 35.5h22v-63h-11q-48 0 -68.5 -20.5t-20.5 -68.5v-149q0 -45 -16.5 -74.5t-51.5 -40.5q35 -11 51.5 -40.5t16.5 -74.5v-149q0 -48 20.5 -68.5t68.5 -20.5h11v-63h-22q-81 0 -116.5 35.5t-35.5 113.5v146
q0 48 -21 69t-69 21h-11v62z" />
    <glyph glyph-name="bar" unicode="|" horiz-adv-x="240" 
d="M86 736h68v-960h-68v960z" />
    <glyph glyph-name="braceright" unicode="}" horiz-adv-x="311" 
d="M301 257h-11q-48 0 -68.5 -21t-20.5 -69v-146q0 -78 -36 -113.5t-116 -35.5h-23v63h11q48 0 69 20.5t21 68.5v149q0 45 16 74.5t51 40.5q-35 11 -51 40.5t-16 74.5v149q0 48 -21 68.5t-69 20.5h-11v63h23q80 0 116 -35.5t36 -113.5v-146q0 -48 20.5 -69t68.5 -21h11v-62z
" />
    <glyph glyph-name="hyphen" unicode="-" horiz-adv-x="320" 
d="M26 278h268v-62h-268v62z" />
    <glyph glyph-name="uni00AD" unicode="&#xad;" horiz-adv-x="320" 
d="M26 278h268v-62h-268v62z" />
    <glyph glyph-name="endash" unicode="&#x2013;" 
d="M26 278h524v-62h-524v62z" />
    <glyph glyph-name="emdash" unicode="&#x2014;" horiz-adv-x="864" 
d="M26 278h812v-62h-812v62z" />
    <glyph glyph-name="underscore" unicode="_" horiz-adv-x="480" 
d="M0 -97h480v-62h-480v62z" />
    <glyph glyph-name="dagger" unicode="&#x2020;" horiz-adv-x="471" 
d="M201 445h-167v63h167v164h69v-164h167v-63h-167v-445h-69v445z" />
    <glyph glyph-name="daggerdbl" unicode="&#x2021;" horiz-adv-x="471" 
d="M201 164h-167v63h167v218h-167v63h167v164h69v-164h167v-63h-167v-218h167v-63h-167v-164h-69v164z" />
    <glyph glyph-name="section" unicode="&#xa7;" horiz-adv-x="556" 
d="M68 515q0 90 53.5 129.5t172.5 39.5q100 0 181 -25v-66q-86 27 -175 27q-81 0 -114.5 -24t-33.5 -81q0 -40 26 -60t65.5 -32t85.5 -22t85.5 -28.5t65.5 -52t26 -92.5q0 -75 -47 -118q15 -17 23 -40t8 -53q0 -90 -53.5 -131.5t-174.5 -41.5q-56 0 -107 8t-96 23v66
q94 -33 197 -33q83 0 116.5 26t33.5 83q0 31 -15 50.5t-40 32t-57 20.5t-65 16.5t-65 19.5t-57 29.5t-40 47t-15 71.5q0 77 49 119q-16 17 -24.5 39.5t-8.5 52.5zM134 305q0 -29 13 -48t35 -31.5t49.5 -20t57 -15.5t57.5 -17.5t50 -24.5q29 29 29 79q0 30 -13 49.5
t-34.5 32.5t-49 21t-56.5 15.5t-57 16.5t-50 24q-31 -25 -31 -81z" />
    <glyph glyph-name="paragraph" unicode="&#xb6;" horiz-adv-x="593" 
d="M441 609h-120v-350h-54q-226 0 -226 206q0 207 226 207h243v-816h-69v753z" />
    <glyph glyph-name="registered" unicode="&#xae;" horiz-adv-x="832" 
d="M42 336q0 96 21.5 165.5t66.5 114.5t116 66.5t170 21.5t170 -21.5t116 -66.5t66.5 -114.5t21.5 -165.5t-21.5 -165.5t-66.5 -114.5t-116 -66.5t-170 -21.5t-170 21.5t-116 66.5t-66.5 114.5t-21.5 165.5zM92 336q0 -86 19 -147.5t59 -100.5t101 -57.5t145 -18.5t145 18.5
t101 57.5t59 100.5t19 147.5t-18.5 147.5t-57.5 100.5t-100.5 57.5t-147.5 18.5t-147.5 -18.5t-100.5 -57.5t-57.5 -100.5t-18.5 -147.5zM268 544h173q78 0 112 -29t34 -96q0 -107 -100 -120l109 -171h-68l-101 165h-100v-165h-59v416zM327 342h110q48 0 68.5 17.5
t20.5 59.5t-20.5 59t-68.5 17h-110v-153z" />
    <glyph glyph-name="copyright" unicode="&#xa9;" horiz-adv-x="832" 
d="M42 336q0 96 21.5 165.5t66.5 114.5t116 66.5t170 21.5t170 -21.5t116 -66.5t66.5 -114.5t21.5 -165.5t-21.5 -165.5t-66.5 -114.5t-116 -66.5t-170 -21.5t-170 21.5t-116 66.5t-66.5 114.5t-21.5 165.5zM92 336q0 -86 19 -147.5t59 -100.5t101 -57.5t145 -18.5t145 18.5
t101 57.5t59 100.5t19 147.5t-18.5 147.5t-57.5 100.5t-100.5 57.5t-147.5 18.5t-147.5 -18.5t-100.5 -57.5t-57.5 -100.5t-18.5 -147.5zM228 336q0 114 47.5 165t154.5 51q34 0 63.5 -4t58.5 -12v-52q-28 8 -55.5 12.5t-56.5 4.5q-80 0 -114 -38t-34 -127t34 -127t114 -38
q29 0 56.5 4.5t55.5 12.5v-52q-29 -8 -58.5 -12t-63.5 -4q-107 0 -154.5 51t-47.5 165z" />
    <glyph glyph-name="trademark" unicode="&#x2122;" horiz-adv-x="929" 
d="M456 672h60l145 -235l147 235h61v-416h-59v324l-128 -204h-42l-126 204v-324h-58v416zM167 622h-143v50h348v-50h-143v-366h-62v366z" />
    <glyph glyph-name="quotedblleft" unicode="&#x201c;" horiz-adv-x="431" 
d="M119 672h66l-58 -227h-83zM318 672h66l-58 -227h-83z" />
    <glyph glyph-name="quotedblright" unicode="&#x201d;" horiz-adv-x="431" 
d="M112 445h-65l57 227h84zM311 445h-65l57 227h84z" />
    <glyph glyph-name="quoteleft" unicode="&#x2018;" horiz-adv-x="231" 
d="M119 672h66l-58 -227h-83z" />
    <glyph glyph-name="quoteright" unicode="&#x2019;" horiz-adv-x="231" 
d="M112 445h-65l57 227h84z" />
    <glyph glyph-name="guillemotleft" unicode="&#xab;" horiz-adv-x="495" 
d="M114 243l132 -193h-76l-139 193l139 193h76zM330 243l131 -193h-75l-140 193l140 193h75z" />
    <glyph glyph-name="guillemotright" unicode="&#xbb;" horiz-adv-x="495" 
d="M165 243l-132 193h76l140 -193l-140 -193h-76zM380 243l-131 193h75l140 -193l-140 -193h-75z" />
    <glyph glyph-name="guilsinglleft" unicode="&#x2039;" horiz-adv-x="279" 
d="M114 243l132 -193h-76l-139 193l139 193h76z" />
    <glyph glyph-name="guilsinglright" unicode="&#x203a;" horiz-adv-x="279" 
d="M165 243l-132 193h76l140 -193l-140 -193h-76z" />
    <glyph glyph-name="quotesinglbase" unicode="&#x201a;" horiz-adv-x="231" 
d="M96 -144h-65l57 227h84z" />
    <glyph glyph-name="quotedblbase" unicode="&#x201e;" horiz-adv-x="431" 
d="M96 -144h-65l57 227h84zM295 -144h-65l57 227h84z" />
    <glyph glyph-name="ordfeminine" unicode="&#xaa;" horiz-adv-x="378" 
d="M42 278h294v-50h-294v50zM98 440q0 -29 18 -42t58 -13q47 0 68 16t21 53v26q-17 7 -38.5 10t-44.5 3q-45 0 -63.5 -12t-18.5 -41zM39 438q0 51 31 73t101 22q53 0 92 -14v39q0 41 -21 58t-69 17q-27 0 -52.5 -3t-51.5 -11v47q25 8 51.5 11t56.5 3q76 0 110 -29.5
t34 -95.5v-206h-47l-4 30q-30 -38 -106 -38q-65 0 -95 23t-30 74z" />
    <glyph glyph-name="ordmasculine" unicode="&#xba;" horiz-adv-x="403" 
d="M42 278h318v-50h-318v50zM39 510q0 90 38.5 130t123.5 40t123.5 -40t38.5 -130t-38 -129.5t-124 -39.5q-85 0 -123.5 39.5t-38.5 129.5zM101 510q0 -64 23 -92t77 -28t77 28t23 92q0 65 -23 92.5t-77 27.5t-77 -27.5t-23 -92.5z" />
    <glyph glyph-name="arrowleft" unicode="&#x2190;" horiz-adv-x="864" 
d="M182 251l233 -231h-107l-267 268l267 268h107l-233 -231h630v-74h-630z" />
    <glyph glyph-name="arrowup" unicode="&#x2191;" horiz-adv-x="864" 
d="M395 538l-231 -233v107l268 267l268 -267v-107l-231 233v-630h-74v630z" />
    <glyph glyph-name="arrowright" unicode="&#x2192;" horiz-adv-x="864" 
d="M682 325l-233 231h107l267 -268l-267 -268h-107l233 231h-630v74h630z" />
    <glyph glyph-name="arrowdown" unicode="&#x2193;" horiz-adv-x="864" 
d="M469 38l231 233v-107l-268 -267l-268 267v107l231 -233v630h74v-630z" />
    <glyph glyph-name="zero" unicode="0" 
d="M41 336q0 92 14 158t44 108t77 62t112 20t112 -20t77 -62t44 -108t14 -158t-14 -158t-44 -108t-77 -62t-112 -20t-112 20t-77 62t-44 108t-14 158zM119 336q0 -75 9.5 -128.5t29.5 -87t52.5 -49.5t77.5 -16t77.5 16t52.5 49.5t29.5 87t9.5 128.5t-9.5 128.5t-29.5 87
t-52.5 49.5t-77.5 16t-77.5 -16t-52.5 -49.5t-29.5 -87t-9.5 -128.5z" />
    <glyph glyph-name="one" unicode="1" 
d="M304 599l-185 -81v67l198 87h67v-672h-80v599z" />
    <glyph glyph-name="two" unicode="2" 
d="M55 60l265 258q45 44 66.5 84t21.5 82q0 71 -36 102t-120 31q-88 0 -176 -30v68q45 16 91 22.5t97 6.5q119 0 172 -45.5t53 -146.5q0 -54 -24.5 -103t-76.5 -100l-226 -223h333v-66h-440v60z" />
    <glyph glyph-name="three" unicode="3" 
d="M465 617l-194 -237q118 -6 172 -52t54 -139q0 -106 -64 -153.5t-209 -47.5q-91 0 -169 25v66q79 -27 163 -27q106 0 152 32t46 106q0 73 -49 104.5t-162 31.5h-25v49l194 234h-311v63h402v-55z" />
    <glyph glyph-name="four" unicode="4" 
d="M371 148h-343v60l333 464h84v-461h98v-63h-98v-148h-74v148zM371 211v369l-265 -369h265z" />
    <glyph glyph-name="five" unicode="5" 
d="M479 609h-310v-219q43 3 88 3q134 0 194 -47t60 -153q0 -108 -64 -156.5t-205 -48.5q-91 0 -169 25v66q81 -27 163 -27q103 0 148 33.5t45 108.5q0 74 -47 107t-154 33q-32 0 -65 -2t-68 -5v345h384v-63z" />
    <glyph glyph-name="six" unicode="6" 
d="M55 304q0 100 16.5 172t52.5 118t92 68t136 22q79 0 148 -21v-65q-35 11 -71 16.5t-71 5.5q-61 0 -103.5 -16t-69 -50.5t-38.5 -87.5t-13 -126q17 46 61 67.5t120 21.5q116 0 168 -51t52 -165q0 -118 -56.5 -171.5t-182.5 -53.5q-64 0 -109.5 18t-75 56t-43 98t-13.5 144
zM141 224q0 -172 154 -172q87 0 124.5 37.5t37.5 121.5q0 82 -35 119t-116 37q-87 0 -126 -34.5t-39 -108.5z" />
    <glyph glyph-name="seven" unicode="7" 
d="M511 615l-280 -615h-81l276 606h-366v66h451v-57z" />
    <glyph glyph-name="eight" unicode="8" 
d="M288 377q81 9 114.5 38t33.5 89q0 63 -34 90t-114 27t-114 -27t-34 -90q0 -60 33.5 -89t114.5 -38zM47 173q0 76 35 115.5t117 55.5q-72 14 -104 53t-32 110q0 94 53 135.5t172 41.5t172 -41.5t53 -135.5q0 -71 -32 -110t-104 -53q82 -16 117 -55.5t35 -115.5
q0 -98 -56.5 -141.5t-184.5 -43.5t-184.5 43.5t-56.5 141.5zM288 311q-45 -5 -76 -14.5t-50.5 -25.5t-28 -39.5t-8.5 -55.5q0 -67 38 -96t125 -29t125 29t38 96q0 32 -8.5 55.5t-27.5 39.5t-50.5 25.5t-76.5 14.5z" />
    <glyph glyph-name="nine" unicode="9" 
d="M521 368q0 -100 -16.5 -172t-52.5 -118t-92.5 -68t-135.5 -22t-148 21v65q35 -11 71 -16.5t71 -5.5q61 0 103.5 16t69 50.5t38.5 87t13 126.5q-17 -46 -61 -67.5t-120 -21.5q-116 0 -168 51t-52 165q0 118 56.5 171.5t182.5 53.5q64 0 109.5 -18t75 -56t43 -98t13.5 -144
zM435 448q0 172 -154 172q-87 0 -124.5 -37.5t-37.5 -121.5q0 -82 35 -119t116 -37q87 0 126 34.5t39 108.5z" />
    <glyph glyph-name="dollar" unicode="$" 
d="M251 20q-97 5 -176 31v66q96 -33 199 -33q84 0 119 26t35 83q0 42 -26.5 63.5t-66.5 34t-87 22.5t-87 28t-66.5 50t-26.5 90q0 81 43.5 121.5t139.5 47.5v166h74v-165q84 -3 156 -24v-66q-87 27 -179 27q-82 0 -116 -24t-34 -81q0 -41 26.5 -61t66.5 -32t87 -21.5t87 -28
t66.5 -52t26.5 -93.5q0 -82 -44.5 -124t-142.5 -50v-165h-74v164z" />
    <glyph glyph-name="cent" unicode="&#xa2;" 
d="M100 336q0 120 44.5 180.5t143.5 71.5v167h74v-164q67 -3 119 -19v-65q-62 20 -130 20q-91 0 -130.5 -44.5t-39.5 -146.5t39.5 -146.5t130.5 -44.5q68 0 130 20v-65q-27 -8 -56.5 -13t-62.5 -6v-164h-74v167q-99 11 -143.5 71t-44.5 181z" />
    <glyph glyph-name="Euro" unicode="&#x20ac;" 
d="M47 293h65q-1 11 -1 21.5v21.5v27.5t1 27.5h-65v51h70q18 127 86.5 184.5t196.5 57.5q79 0 145 -19v-62q-69 20 -136 20q-95 0 -145 -42t-65 -139h256v-51h-262q-1 -13 -1 -27v-28v-22t1 -21h262v-51h-258q13 -104 63.5 -148.5t148.5 -44.5q67 0 136 20v-62
q-66 -19 -145 -19q-132 0 -200 60t-84 194h-69v51z" />
    <glyph glyph-name="florin" unicode="&#x192;" 
d="M441 359h-126v-218q0 -79 -36.5 -116t-113.5 -37q-36 0 -73 8v64q32 -8 60 -8q83 0 83 89v218h-119v63h119v104q0 81 37 119.5t118 38.5q40 0 75 -8v-64q-32 8 -62 8q-46 0 -67 -23t-21 -71v-104h126v-63z" />
    <glyph glyph-name="sterling" unicode="&#xa3;" 
d="M79 64h90v247h-74v62h74v98q0 111 51.5 162t166.5 51q60 0 116 -15v-66q-54 15 -104 15q-79 0 -113 -34.5t-34 -115.5v-95h197v-62h-197v-247h259v-64h-432v64z" />
    <glyph glyph-name="yen" unicode="&#xa5;" 
d="M247 137h-163v51h163v99h-163v50h140l-216 335h91l189 -300l189 300h91l-216 -335h140v-50h-163v-99h163v-51h-163v-137h-82v137z" />
    <glyph glyph-name="numbersign" unicode="#" horiz-adv-x="652" 
d="M146 177h-121v56h128l26 206h-121v56h128l22 177h62l-22 -177h195l22 177h62l-21 -177h120v-56h-127l-26 -206h120v-56h-127l-22 -177h-63l22 177h-195l-22 -177h-62zM216 233h194l26 206h-195z" />
    <glyph glyph-name="percent" unicode="%" horiz-adv-x="864" 
d="M44 504q0 95 38.5 137.5t125.5 42.5t125.5 -42.5t38.5 -137.5t-38.5 -137.5t-125.5 -42.5t-125.5 42.5t-38.5 137.5zM108 504q0 -67 23 -96t77 -29t77 29t23 96t-23 96t-77 29t-77 -29t-23 -96zM557 672h52l-302 -672h-52zM492 168q0 95 38.5 137.5t125.5 42.5
t125.5 -42.5t38.5 -137.5t-38.5 -137.5t-125.5 -42.5t-125.5 42.5t-38.5 137.5zM556 168q0 -67 23 -96t77 -29t77 29t23 96t-23 96t-77 29t-77 -29t-23 -96z" />
    <glyph glyph-name="perthousand" unicode="&#x2030;" horiz-adv-x="1248" 
d="M44 504q0 95 38.5 137.5t125.5 42.5t125.5 -42.5t38.5 -137.5t-38.5 -137.5t-125.5 -42.5t-125.5 42.5t-38.5 137.5zM108 504q0 -67 23 -96t77 -29t77 29t23 96t-23 96t-77 29t-77 -29t-23 -96zM492 168q0 95 38.5 137.5t125.5 42.5t125.5 -42.5t38.5 -137.5
t-38.5 -137.5t-125.5 -42.5t-125.5 42.5t-38.5 137.5zM556 168q0 -67 23 -96t77 -29t77 29t23 96t-23 96t-77 29t-77 -29t-23 -96zM876 168q0 95 38.5 137.5t125.5 42.5t125.5 -42.5t38.5 -137.5t-38.5 -137.5t-125.5 -42.5t-125.5 42.5t-38.5 137.5zM940 168q0 -67 23 -96
t77 -29t77 29t23 96t-23 96t-77 29t-77 -29t-23 -96zM557 672h52l-302 -672h-52z" />
    <glyph glyph-name="plus" unicode="+" 
d="M74 322h180v180h68v-180h180v-68h-180v-180h-68v180h-180v68z" />
    <glyph glyph-name="minus" unicode="&#x2212;" 
d="M74 322h428v-68h-428v68z" />
    <glyph glyph-name="multiply" unicode="&#xd7;" 
d="M90 138l150 150l-150 150l48 48l150 -150l150 150l48 -48l-150 -150l150 -150l-48 -48l-150 150l-150 -150z" />
    <glyph glyph-name="less" unicode="&#x3c;" 
d="M74 250v76l428 177v-72l-346 -143l346 -143v-72z" />
    <glyph glyph-name="divide" unicode="&#xf7;" 
d="M74 319h428v-62h-428v62zM240 464q0 25 11 35.5t37 10.5t37 -10.5t11 -35.5t-11 -35.5t-37 -10.5t-37 10.5t-11 35.5zM240 112q0 25 11 35.5t37 10.5t37 -10.5t11 -35.5t-11 -35.5t-37 -10.5t-37 10.5t-11 35.5z" />
    <glyph glyph-name="equal" unicode="=" 
d="M74 223h428v-69h-428v69zM74 422h428v-69h-428v69z" />
    <glyph glyph-name="logicalnot" unicode="&#xac;" 
d="M74 322h428v-248h-69v180h-359v68z" />
    <glyph glyph-name="greater" unicode="&#x3e;" 
d="M502 326v-76l-428 -177v72l346 143l-346 143v72z" />
    <glyph glyph-name="notequal" unicode="&#x2260;" 
d="M74 223h156l44 130h-200v69h222l52 154h72l-51 -154h133v-69h-156l-44 -130h200v-69h-222l-52 -154h-72l51 154h-133v69z" />
    <glyph glyph-name="approxequal" unicode="&#x2248;" 
d="M74 213q45 47 118 47q36 0 60.5 -11.5t45 -26t41.5 -26t51 -11.5q33 0 59.5 13t52.5 41v-75q-45 -47 -118 -47q-36 0 -60.5 11.5t-45 25.5t-41.5 25.5t-51 11.5q-33 0 -59.5 -13t-52.5 -40v75zM74 412q45 47 118 47q36 0 60.5 -11.5t45 -25.5t41.5 -25.5t51 -11.5
q33 0 59.5 13t52.5 40v-75q-45 -47 -118 -47q-36 0 -60.5 11.5t-45 26t-41.5 26t-51 11.5q-33 0 -59.5 -13t-52.5 -41v75z" />
    <glyph glyph-name="plusminus" unicode="&#xb1;" 
d="M74 68h428v-68h-428v68zM74 410h180v179h68v-179h180v-69h-180v-180h-68v180h-180v69z" />
    <glyph glyph-name="lessequal" unicode="&#x2264;" 
d="M74 68h428v-68h-428v68zM74 337v77l428 171v-73l-346 -137l346 -137v-72z" />
    <glyph glyph-name="greaterequal" unicode="&#x2265;" 
d="M74 68h428v-68h-428v68zM502 414v-77l-428 -171v72l346 137l-346 137v73z" />
    <glyph glyph-name="asciicircum" unicode="^" 
d="M247 672h82l196 -428h-78l-159 347l-159 -347h-78z" />
    <glyph glyph-name="asciitilde" unicode="~" 
d="M182 379q40 0 67.5 -17.5t49 -38.5t42 -38.5t47.5 -17.5q40 0 57.5 24.5t18.5 77.5h68q-1 -89 -33.5 -130.5t-104.5 -41.5q-40 0 -67.5 17.5t-49 38.5t-42 38.5t-47.5 17.5q-40 0 -57.5 -24.5t-18.5 -77.5h-68q1 89 33.5 130.5t104.5 41.5z" />
    <glyph glyph-name="lozenge" unicode="&#x25ca;" 
d="M41 336l207 336h80l207 -336l-207 -336h-80zM123 336l165 -268l165 268l-165 266z" />
    <glyph glyph-name="degree" unicode="&#xb0;" horiz-adv-x="343" 
d="M47 559q0 60 32.5 91t92.5 31t92 -31t32 -91t-32 -91.5t-92 -31.5q-61 0 -93 31.5t-32 91.5zM95 559q0 -77 77 -77q76 0 76 77q0 76 -76 76q-77 0 -77 -76z" />
    <glyph glyph-name="quotesingle" unicode="'" horiz-adv-x="231" 
d="M150 445h-69v227h69v-227z" />
    <glyph glyph-name="quotedbl" unicode="&#x22;" horiz-adv-x="431" 
d="M150 445h-69v227h69v-227zM349 445h-68v227h68v-227z" />
    <glyph glyph-name="radical" unicode="&#x221a;" horiz-adv-x="679" 
d="M394 -208h-84l-114 338l-183 -62v72l227 75l111 -326l226 783h72z" />
    <glyph glyph-name="currency" unicode="&#xa4;" 
d="M99 336q0 75 26 114l-73 74l48 48l74 -73q39 26 114 26t114 -26l74 73l48 -48l-73 -74q26 -39 26 -114t-26 -114l73 -74l-48 -48l-74 73q-39 -26 -114 -26t-114 26l-74 -73l-48 48l73 74q-26 39 -26 114zM163 336q0 -67 29 -96t96 -29t96 29t29 96t-29 96t-96 29t-96 -29
t-29 -96z" />
    <glyph glyph-name="infinity" unicode="&#x221e;" horiz-adv-x="785" 
d="M36 288q0 101 41 146.5t132 45.5q33 0 59.5 -7t48 -22.5t40 -41.5t36.5 -64q18 38 36.5 64t40 41.5t47.5 22.5t60 7q91 0 131.5 -45t40.5 -147q0 -101 -40.5 -146.5t-131.5 -45.5q-34 0 -60 6.5t-47.5 22.5t-40 42t-36.5 64q-18 -38 -36.5 -64t-40 -42t-48 -22.5
t-59.5 -6.5q-91 0 -132 45t-41 147zM111 288q0 -69 24.5 -98.5t81.5 -29.5q24 0 43 6t34.5 21t30 39.5t29.5 61.5q-15 37 -29.5 61.5t-30 39.5t-34.5 21t-43 6q-57 0 -81.5 -29.5t-24.5 -98.5zM675 288q0 69 -25 98.5t-82 29.5q-24 0 -42.5 -6t-34.5 -21t-30.5 -39.5
t-29.5 -61.5q15 -37 29.5 -61.5t30.5 -39.5t34.5 -21t42.5 -6q57 0 82 29.5t25 98.5z" />
    <glyph glyph-name="mu" unicode="&#x3bc;" horiz-adv-x="567" 
d="M71 486h80v-298q0 -72 29.5 -103t96.5 -31q74 0 107 32t33 107v293h80v-486h-63l-6 61q-41 -72 -152 -72q-93 0 -125 54v-251h-80v694z" />
    <glyph glyph-name="uni00B5" unicode="&#xb5;" horiz-adv-x="567" 
d="M71 486h80v-298q0 -72 29.5 -103t96.5 -31q74 0 107 32t33 107v293h80v-486h-63l-6 61q-41 -72 -152 -72q-93 0 -125 54v-251h-80v694z" />
    <glyph glyph-name="partialdiff" unicode="&#x2202;" horiz-adv-x="567" 
d="M44 243q0 134 50.5 194.5t161.5 60.5q126 0 173 -76q-9 123 -53.5 177.5t-129.5 54.5q-76 0 -151 -27v64q72 25 157 25q70 0 120 -23t81.5 -73.5t46.5 -130.5t15 -194q0 -158 -56.5 -232.5t-182.5 -74.5q-122 0 -177 60.5t-55 194.5zM126 243q0 -102 35 -146.5t115 -44.5
q84 0 120.5 51.5t36.5 152.5q0 89 -38 133.5t-123 44.5q-77 0 -111.5 -44.5t-34.5 -146.5z" />
    <glyph glyph-name="summation" unicode="&#x2211;" horiz-adv-x="652" 
d="M41 -153l326 409l-310 393v55h555v-66h-450l285 -361v-42l-301 -377h482v-66h-587v55z" />
    <glyph glyph-name="product" unicode="&#x220f;" horiz-adv-x="785" 
d="M84 704h618v-912h-83v846h-452v-846h-83v912z" />
    <glyph glyph-name="pi" unicode="&#x3c0;" horiz-adv-x="599" 
d="M103 423h-69v63h531v-63h-68v-423h-77v423h-240v-423h-77v423z" />
    <glyph glyph-name="integral" unicode="&#x222b;" horiz-adv-x="401" 
d="M84 557q0 84 37 121.5t120 37.5q20 0 37.5 -1.5t33.5 -5.5v-66q-14 4 -28.5 5.5t-27.5 1.5q-51 0 -74 -22.5t-23 -76.5q0 -32 12 -79t29.5 -102.5t38 -115.5t38 -117.5t29.5 -109t12 -88.5q0 -84 -37.5 -121.5t-120.5 -37.5q-40 0 -71 7v66q14 -4 28.5 -5.5t27.5 -1.5
q52 0 74.5 22.5t22.5 76.5q0 31 -11.5 78.5t-29.5 103t-38 115.5t-38 117.5t-29.5 108.5t-11.5 89z" />
    <glyph glyph-name="Omega" unicode="&#x3a9;" horiz-adv-x="737" 
d="M26 66h181q-78 57 -115 132t-37 176q0 82 18 140.5t56.5 96t97.5 55.5t142 18q82 0 141.5 -18t97.5 -55.5t56 -96t18 -140.5q0 -101 -37 -176t-115 -132h181v-66h-277v61q85 53 125 126.5t40 174.5q0 68 -13 116.5t-41 79t-71.5 45t-104.5 14.5t-105 -14.5t-72 -45
t-41 -79t-13 -116.5q0 -101 40 -174.5t125 -126.5v-61h-277v66z" />
    <glyph glyph-name="Ohm" unicode="&#x2126;" horiz-adv-x="737" 
d="M26 66h181q-78 57 -115 132t-37 176q0 82 18 140.5t56.5 96t97.5 55.5t142 18q82 0 141.5 -18t97.5 -55.5t56 -96t18 -140.5q0 -101 -37 -176t-115 -132h181v-66h-277v61q85 53 125 126.5t40 174.5q0 68 -13 116.5t-41 79t-71.5 45t-104.5 14.5t-105 -14.5t-72 -45
t-41 -79t-13 -116.5q0 -101 40 -174.5t125 -126.5v-61h-277v66z" />
    <glyph glyph-name="Delta" unicode="&#x394;" horiz-adv-x="679" 
d="M39 54l254 618h94l253 -618v-54h-601v54zM125 66h430l-215 530z" />
    <glyph glyph-name="Delta" unicode="&#x2206;" horiz-adv-x="679" 
d="M39 54l254 618h94l253 -618v-54h-601v54zM125 66h430l-215 530z" />
    <glyph glyph-name="litre" unicode="&#x2113;" horiz-adv-x="381" 
d="M345 559q0 -90 -51 -166t-149 -138v-106q0 -52 22.5 -74.5t74.5 -22.5q19 0 37.5 2.5t37.5 6.5v-64q-38 -9 -84 -9q-86 0 -124 37t-38 121v399q0 91 33 131t108 40q69 0 101 -37t32 -120zM281 556q0 52 -15 74t-50 22q-38 0 -54.5 -25t-16.5 -84v-212q69 48 102.5 103
t33.5 122z" />
    <glyph glyph-name="estimated" unicode="&#x212e;" horiz-adv-x="960" 
d="M480 16q73 0 135.5 30t107.5 82h66q-53 -66 -133 -105t-176 -39q-80 0 -149.5 27.5t-122 75.5t-82.5 112t-30 137t30 137t82.5 112t122 75.5t149.5 27.5q79 0 149 -27.5t122.5 -75.5t82.5 -112t30 -137q0 -11 -1 -16h-623v-196q44 -51 106 -79.5t134 -28.5zM240 352h480
v196q-45 50 -106.5 79t-133.5 29t-134 -29t-106 -79v-196z" />
    <glyph glyph-name="numero" unicode="&#x2116;" horiz-adv-x="1140" 
d="M780 278h318v-50h-318v50zM84 672h81l412 -557v557h77v-672h-81l-412 557v-557h-77v672zM777 511q0 90 38 129.5t124 39.5q85 0 123.5 -39.5t38.5 -129.5t-38.5 -130t-123.5 -40q-86 0 -124 40t-38 130zM839 511q0 -65 23 -92.5t77 -27.5t77 27.5t23 92.5q0 64 -23 92
t-77 28t-77 -28t-23 -92z" />
    <glyph glyph-name="fraction" unicode="&#x2044;" horiz-adv-x="128" 
d="M189 672h52l-302 -672h-52z" />
    <glyph glyph-name="onesuperior" unicode="&#xb9;" horiz-adv-x="272" 
d="M139 744l-107 -45v51l120 50h48v-416h-61v360z" />
    <glyph glyph-name="twosuperior" unicode="&#xb2;" horiz-adv-x="348" 
d="M28 428l160 155q28 27 40.5 50t12.5 46q0 42 -21 60t-70 18q-28 0 -55 -4t-55 -13v51q28 9 57.5 13t61.5 4q75 0 109.5 -29t34.5 -93q0 -32 -16.5 -63t-46.5 -60l-132 -129h197v-50h-277v44z" />
    <glyph glyph-name="threesuperior" unicode="&#xb3;" horiz-adv-x="348" 
d="M289 760l-115 -139q72 -5 103.5 -33.5t31.5 -84.5q0 -68 -41 -97.5t-133 -29.5q-29 0 -55.5 3.5t-51.5 11.5v49q51 -15 103 -15q61 0 88.5 18t27.5 60t-29 60t-95 18h-17v36l111 135h-185v48h257v-40z" />
    <glyph glyph-name="onehalf" unicode="&#xbd;" horiz-adv-x="864" 
d="M187 616l-107 -45v51l120 50h48v-416h-61v360zM557 672h52l-302 -672h-52zM534 44l160 155q28 27 40.5 50t12.5 46q0 42 -21 60t-70 18q-28 0 -55 -4t-55 -13v51q28 9 57.5 13t61.5 4q75 0 109.5 -29t34.5 -93q0 -32 -16.5 -63t-46.5 -60l-132 -129h197v-50h-277v44z" />
    <glyph glyph-name="onequarter" unicode="&#xbc;" horiz-adv-x="864" 
d="M726 90h-212v45l204 281h63v-279h61v-47h-61v-90h-55v90zM726 137v212l-154 -212h154zM187 616l-107 -45v51l120 50h48v-416h-61v360zM557 672h52l-302 -672h-52z" />
    <glyph glyph-name="threequarters" unicode="&#xbe;" horiz-adv-x="864" 
d="M726 90h-212v45l204 281h63v-279h61v-47h-61v-90h-55v90zM726 137v212l-154 -212h154zM299 632l-115 -139q72 -5 103.5 -33.5t31.5 -84.5q0 -68 -41 -97.5t-133 -29.5q-29 0 -55.5 3.5t-51.5 11.5v49q51 -15 103 -15q61 0 88.5 18t27.5 60t-29 60t-95 18h-17v36l111 135
h-185v48h257v-40zM557 672h52l-302 -672h-52z" />
    <glyph glyph-name="grave" unicode="`" horiz-adv-x="240" 
d="M-35 704h87l121 -140h-74z" />
    <glyph glyph-name="acute" unicode="&#xb4;" horiz-adv-x="240" 
d="M141 564h-74l121 140h87z" />
    <glyph glyph-name="dieresis" unicode="&#xa8;" horiz-adv-x="240" 
d="M169 634q0 26 12 37.5t39 11.5q50 0 50 -49t-50 -49q-27 0 -39 11.5t-12 37.5zM-30 634q0 49 50 49q27 0 39 -11.5t12 -37.5t-12 -37.5t-39 -11.5q-50 0 -50 49z" />
    <glyph glyph-name="circumflex" unicode="&#x2c6;" horiz-adv-x="240" 
d="M80 704h80l123 -140h-73l-90 95l-90 -95h-73z" />
    <glyph glyph-name="tilde" unicode="&#x2dc;" horiz-adv-x="240" 
d="M-35 585q0 54 21 78t67 24q21 0 38 -8t31 -17.5t27 -17.5t27 -8q23 0 32 11.5t9 39.5v7h58v-11q0 -54 -21 -78t-67 -24q-21 0 -38 8t-31 17.5t-27.5 17.5t-26.5 8q-23 0 -32 -11.5t-9 -39.5v-6h-58v10z" />
    <glyph glyph-name="macron" unicode="&#xaf;" horiz-adv-x="240" 
d="M-31 663h302v-57h-302v57z" />
    <glyph glyph-name="breve" unicode="&#x2d8;" horiz-adv-x="240" 
d="M26 704q0 -51 21.5 -72.5t72.5 -21.5t72.5 21.5t21.5 72.5h58q0 -79 -36 -114t-116 -35t-116 35t-36 114h58z" />
    <glyph glyph-name="dotaccent" unicode="&#x2d9;" horiz-adv-x="240" 
d="M69 634q0 26 12 37.5t39 11.5t39 -11.5t12 -37.5t-12 -37.5t-39 -11.5t-39 11.5t-12 37.5z" />
    <glyph glyph-name="ring" unicode="&#x2da;" horiz-adv-x="240" 
d="M17 634q0 50 24.5 72t78.5 22t78.5 -22t24.5 -72q0 -49 -24.5 -71.5t-78.5 -22.5t-78.5 22.5t-24.5 71.5zM64 634q0 -30 13 -43t43 -13t43 12.5t13 43.5q0 30 -13 43.5t-43 13.5t-43 -13.5t-13 -43.5z" />
    <glyph glyph-name="cedilla" unicode="&#xb8;" horiz-adv-x="240" 
d="M92 0h56v-60q42 -3 61.5 -22.5t19.5 -59.5q0 -48 -29.5 -68.5t-94.5 -20.5q-23 0 -44 2.5t-41 7.5v48q20 -5 37.5 -8.5t37.5 -3.5q38 0 54 10t16 35q0 24 -14.5 34t-50.5 10h-8v96z" />
    <glyph glyph-name="hungarumlaut" unicode="&#x2dd;" horiz-adv-x="240" 
d="M242 564h-75l121 140h87zM42 564h-75l122 140h86z" />
    <glyph glyph-name="ogonek" unicode="&#x2db;" horiz-adv-x="240" 
d="M160 0q-27 -25 -46 -44.5t-31 -35t-17 -29t-5 -25.5q0 -25 14.5 -36t47.5 -11q11 0 20.5 1t16.5 3v-49q-11 -3 -24.5 -4t-30.5 -1q-57 0 -82.5 20t-25.5 65q0 35 25.5 71.5t80.5 84.5z" />
    <glyph glyph-name="caron" unicode="&#x2c7;" horiz-adv-x="240" 
d="M160 564h-80l-123 140h73l90 -95l90 95h73z" />
    <glyph glyph-name="commaaccent" unicode="&#xf6c3;" horiz-adv-x="240" 
d="M108 -256h-56l50 188h71z" />
    <glyph glyph-name="grave.cap" unicode="&#xe840;" horiz-adv-x="240" 
d="M-35 880h87l121 -140h-74z" />
    <glyph glyph-name="acute.cap" unicode="&#xe841;" horiz-adv-x="240" 
d="M141 740h-74l121 140h87z" />
    <glyph glyph-name="dieresis.cap" unicode="&#xe845;" horiz-adv-x="240" 
d="M169 810q0 26 12 37.5t39 11.5q50 0 50 -49t-50 -49q-27 0 -39 11.5t-12 37.5zM-30 810q0 49 50 49q27 0 39 -11.5t12 -37.5t-12 -37.5t-39 -11.5q-50 0 -50 49z" />
    <glyph glyph-name="circumflex.cap" unicode="&#xe842;" horiz-adv-x="240" 
d="M80 880h80l123 -140h-73l-90 95l-90 -95h-73z" />
    <glyph glyph-name="tilde.cap" unicode="&#xe844;" horiz-adv-x="240" 
d="M-35 761q0 54 21 78t67 24q21 0 38 -8t31 -17.5t27 -17.5t27 -8q23 0 32 11.5t9 39.5v7h58v-11q0 -54 -21 -78t-67 -24q-21 0 -38 8t-31 17.5t-27.5 17.5t-26.5 8q-23 0 -32 -11.5t-9 -39.5v-6h-58v10z" />
    <glyph glyph-name="macron.cap" unicode="&#xe846;" horiz-adv-x="240" 
d="M-31 839h302v-57h-302v57z" />
    <glyph glyph-name="breve.cap" unicode="&#xe847;" horiz-adv-x="240" 
d="M26 880q0 -51 21.5 -72.5t72.5 -21.5t72.5 21.5t21.5 72.5h58q0 -79 -36 -114t-116 -35t-116 35t-36 114h58z" />
    <glyph glyph-name="dotaccent.cap" unicode="&#xe84a;" horiz-adv-x="240" 
d="M69 810q0 26 12 37.5t39 11.5t39 -11.5t12 -37.5t-12 -37.5t-39 -11.5t-39 11.5t-12 37.5z" />
    <glyph glyph-name="ring.cap" unicode="&#xe848;" horiz-adv-x="240" 
d="M17 810q0 50 24.5 72t78.5 22t78.5 -22t24.5 -72q0 -49 -24.5 -71.5t-78.5 -22.5t-78.5 22.5t-24.5 71.5zM64 810q0 -30 13 -43t43 -13t43 12.5t13 43.5q0 30 -13 43.5t-43 13.5t-43 -13.5t-13 -43.5z" />
    <glyph glyph-name="hungarumlaut.cap" unicode="&#xe849;" horiz-adv-x="240" 
d="M242 740h-75l121 140h87zM42 740h-75l122 140h86z" />
    <glyph glyph-name="caron.cap" unicode="&#xe843;" horiz-adv-x="240" 
d="M160 740h-80l-123 140h73l90 -95l90 95h73z" />
    <glyph glyph-name="Agrave" unicode="&#xc0;" horiz-adv-x="648" 
d="M544 0q-11 40 -24.5 85.5t-29.5 93.5h-332q-16 -48 -29.5 -93.5t-24.5 -85.5h-84q21 80 51.5 174t65.5 186t71.5 174t68.5 138h94q32 -56 68.5 -138t71.5 -174t65.5 -186t51.5 -174h-84zM324 598q-17 -33 -35.5 -74t-37 -87t-37 -96t-35.5 -100h290q-17 50 -35.5 100
t-37.5 96t-37 87t-35 74zM169 880h87l121 -140h-74z" />
    <glyph glyph-name="Aacute" unicode="&#xc1;" horiz-adv-x="648" 
d="M544 0q-11 40 -24.5 85.5t-29.5 93.5h-332q-16 -48 -29.5 -93.5t-24.5 -85.5h-84q21 80 51.5 174t65.5 186t71.5 174t68.5 138h94q32 -56 68.5 -138t71.5 -174t65.5 -186t51.5 -174h-84zM324 598q-17 -33 -35.5 -74t-37 -87t-37 -96t-35.5 -100h290q-17 50 -35.5 100
t-37.5 96t-37 87t-35 74zM345 740h-74l121 140h87z" />
    <glyph glyph-name="Acircumflex" unicode="&#xc2;" horiz-adv-x="648" 
d="M544 0q-11 40 -24.5 85.5t-29.5 93.5h-332q-16 -48 -29.5 -93.5t-24.5 -85.5h-84q21 80 51.5 174t65.5 186t71.5 174t68.5 138h94q32 -56 68.5 -138t71.5 -174t65.5 -186t51.5 -174h-84zM324 598q-17 -33 -35.5 -74t-37 -87t-37 -96t-35.5 -100h290q-17 50 -35.5 100
t-37.5 96t-37 87t-35 74zM284 880h80l123 -140h-73l-90 95l-90 -95h-73z" />
    <glyph glyph-name="Atilde" unicode="&#xc3;" horiz-adv-x="648" 
d="M544 0q-11 40 -24.5 85.5t-29.5 93.5h-332q-16 -48 -29.5 -93.5t-24.5 -85.5h-84q21 80 51.5 174t65.5 186t71.5 174t68.5 138h94q32 -56 68.5 -138t71.5 -174t65.5 -186t51.5 -174h-84zM324 598q-17 -33 -35.5 -74t-37 -87t-37 -96t-35.5 -100h290q-17 50 -35.5 100
t-37.5 96t-37 87t-35 74zM169 761q0 54 21 78t67 24q21 0 38 -8t31 -17.5t27 -17.5t27 -8q23 0 32 11.5t9 39.5v7h58v-11q0 -54 -21 -78t-67 -24q-21 0 -38 8t-31 17.5t-27.5 17.5t-26.5 8q-23 0 -32 -11.5t-9 -39.5v-6h-58v10z" />
    <glyph glyph-name="Adieresis" unicode="&#xc4;" horiz-adv-x="648" 
d="M544 0q-11 40 -24.5 85.5t-29.5 93.5h-332q-16 -48 -29.5 -93.5t-24.5 -85.5h-84q21 80 51.5 174t65.5 186t71.5 174t68.5 138h94q32 -56 68.5 -138t71.5 -174t65.5 -186t51.5 -174h-84zM324 598q-17 -33 -35.5 -74t-37 -87t-37 -96t-35.5 -100h290q-17 50 -35.5 100
t-37.5 96t-37 87t-35 74zM373 810q0 26 12 37.5t39 11.5q50 0 50 -49t-50 -49q-27 0 -39 11.5t-12 37.5zM174 810q0 49 50 49q27 0 39 -11.5t12 -37.5t-12 -37.5t-39 -11.5q-50 0 -50 49z" />
    <glyph glyph-name="Amacron" unicode="&#x100;" horiz-adv-x="648" 
d="M544 0q-11 40 -24.5 85.5t-29.5 93.5h-332q-16 -48 -29.5 -93.5t-24.5 -85.5h-84q21 80 51.5 174t65.5 186t71.5 174t68.5 138h94q32 -56 68.5 -138t71.5 -174t65.5 -186t51.5 -174h-84zM324 598q-17 -33 -35.5 -74t-37 -87t-37 -96t-35.5 -100h290q-17 50 -35.5 100
t-37.5 96t-37 87t-35 74zM173 839h302v-57h-302v57z" />
    <glyph glyph-name="Abreve" unicode="&#x102;" horiz-adv-x="648" 
d="M544 0q-11 40 -24.5 85.5t-29.5 93.5h-332q-16 -48 -29.5 -93.5t-24.5 -85.5h-84q21 80 51.5 174t65.5 186t71.5 174t68.5 138h94q32 -56 68.5 -138t71.5 -174t65.5 -186t51.5 -174h-84zM324 598q-17 -33 -35.5 -74t-37 -87t-37 -96t-35.5 -100h290q-17 50 -35.5 100
t-37.5 96t-37 87t-35 74zM230 880q0 -51 21.5 -72.5t72.5 -21.5t72.5 21.5t21.5 72.5h58q0 -79 -36 -114t-116 -35t-116 35t-36 114h58z" />
    <glyph glyph-name="Acaron" unicode="&#x1cd;" horiz-adv-x="648" 
d="M544 0q-11 40 -24.5 85.5t-29.5 93.5h-332q-16 -48 -29.5 -93.5t-24.5 -85.5h-84q21 80 51.5 174t65.5 186t71.5 174t68.5 138h94q32 -56 68.5 -138t71.5 -174t65.5 -186t51.5 -174h-84zM324 598q-17 -33 -35.5 -74t-37 -87t-37 -96t-35.5 -100h290q-17 50 -35.5 100
t-37.5 96t-37 87t-35 74zM365 740h-80l-123 140h73l90 -95l90 95h73z" />
    <glyph glyph-name="Aring" unicode="&#xc5;" horiz-adv-x="648" 
d="M544 0q-11 40 -24.5 85.5t-29.5 93.5h-332q-16 -48 -29.5 -93.5t-24.5 -85.5h-84q21 80 51.5 174t65.5 186t71.5 174t68.5 138h94q32 -56 68.5 -138t71.5 -174t65.5 -186t51.5 -174h-84zM324 598q-17 -33 -35.5 -74t-37 -87t-37 -96t-35.5 -100h290q-17 50 -35.5 100
t-37.5 96t-37 87t-35 74zM221 810q0 50 24.5 72t78.5 22t78.5 -22t24.5 -72q0 -49 -24.5 -71.5t-78.5 -22.5t-78.5 22.5t-24.5 71.5zM268 810q0 -30 13 -43t43 -13t43 12.5t13 43.5q0 30 -13 43.5t-43 13.5t-43 -13.5t-13 -43.5z" />
    <glyph glyph-name="Aringacute" unicode="&#x1fa;" horiz-adv-x="648" 
d="M544 0q-11 40 -24.5 85.5t-29.5 93.5h-332q-16 -48 -29.5 -93.5t-24.5 -85.5h-84q21 80 51.5 174t65.5 186t71.5 174t68.5 138h94q32 -56 68.5 -138t71.5 -174t65.5 -186t51.5 -174h-84zM324 598q-17 -33 -35.5 -74t-37 -87t-37 -96t-35.5 -100h290q-17 50 -35.5 100
t-37.5 96t-37 87t-35 74zM371 898q56 -16 56 -88q0 -49 -24.5 -71.5t-78.5 -22.5t-78.5 22.5t-24.5 71.5q0 43 18.5 65t59.5 27l93 106h87zM268 810q0 -30 13 -43t43 -13t43 12.5t13 43.5q0 30 -13 43.5t-43 13.5t-43 -13.5t-13 -43.5z" />
    <glyph glyph-name="Aogonek" unicode="&#x104;" horiz-adv-x="648" 
d="M544 0q-11 40 -24.5 85.5t-29.5 93.5h-332q-16 -48 -29.5 -93.5t-24.5 -85.5h-84q21 80 51.5 174t65.5 186t71.5 174t68.5 138h94q32 -56 68.5 -138t71.5 -174t65.5 -186t51.5 -174q-27 -25 -46 -44.5t-31 -35t-17 -29t-5 -25.5q0 -25 14.5 -36t47.5 -11q11 0 20.5 1
t16.5 3v-49q-11 -3 -24.5 -4t-30.5 -1q-57 0 -82.5 20t-25.5 65q0 34 22.5 68.5t70.5 77.5h-14zM324 598q-17 -33 -35.5 -74t-37 -87t-37 -96t-35.5 -100h290q-17 50 -35.5 100t-37.5 96t-37 87t-35 74z" />
    <glyph glyph-name="AE" unicode="&#xc6;" horiz-adv-x="966" 
d="M913 606h-368v-233h296v-62h-296v-245h376v-66h-459v179h-287q-27 -45 -53.5 -89.5t-50.5 -89.5h-85q53 96 112 192.5t117.5 184.5t114 164t102.5 131h481v-66zM462 600q-54 -69 -118.5 -162t-130.5 -197h249v359z" />
    <glyph glyph-name="AEacute" unicode="&#x1fc;" horiz-adv-x="966" 
d="M913 606h-368v-233h296v-62h-296v-245h376v-66h-459v179h-287q-27 -45 -53.5 -89.5t-50.5 -89.5h-85q53 96 112 192.5t117.5 184.5t114 164t102.5 131h481v-66zM462 600q-54 -69 -118.5 -162t-130.5 -197h249v359zM567 740h-74l121 140h87z" />
    <glyph glyph-name="Cacute" unicode="&#x106;" horiz-adv-x="604" 
d="M49 336q0 92 18.5 158t57.5 108t99.5 62t144.5 20q65 0 118 -9t77 -17l-12 -65q-38 11 -81.5 17.5t-90.5 6.5q-65 0 -111.5 -16t-76.5 -49.5t-44 -87t-14 -128.5t14 -128.5t44 -87t76.5 -49.5t111.5 -16q47 0 91 6.5t88 19.5v-68q-87 -25 -190 -25q-84 0 -144.5 20
t-99.5 62t-57.5 108t-18.5 158zM379 740h-74l121 140h87z" />
    <glyph glyph-name="Ccedilla" unicode="&#xc7;" horiz-adv-x="604" 
d="M330 -10q-147 8 -214 90.5t-67 255.5q0 92 18.5 158t57.5 108t99.5 62t144.5 20q103 0 190 -25v-68q-44 13 -88 19.5t-91 6.5q-65 0 -111.5 -16t-76.5 -49.5t-44 -87t-14 -128.5t14 -128.5t44 -87t76.5 -49.5t111.5 -16q47 0 91 6.5t88 19.5v-68q-41 -11 -84 -17.5
t-89 -7.5v-48q42 -3 61.5 -22.5t19.5 -59.5q0 -48 -29.5 -68.5t-94.5 -20.5q-23 0 -44 2.5t-41 7.5v48q20 -5 37.5 -8.5t37.5 -3.5q38 0 54 10t16 35q0 24 -14.5 34t-50.5 10h-8v86z" />
    <glyph glyph-name="Ccircumflex" unicode="&#x108;" horiz-adv-x="604" 
d="M49 336q0 92 18.5 158t57.5 108t99.5 62t144.5 20q65 0 118 -9t77 -17l-12 -65q-38 11 -81.5 17.5t-90.5 6.5q-65 0 -111.5 -16t-76.5 -49.5t-44 -87t-14 -128.5t14 -128.5t44 -87t76.5 -49.5t111.5 -16q47 0 91 6.5t88 19.5v-68q-87 -25 -190 -25q-84 0 -144.5 20
t-99.5 62t-57.5 108t-18.5 158zM318 880h80l123 -140h-73l-90 95l-90 -95h-73z" />
    <glyph glyph-name="Ccaron" unicode="&#x10c;" horiz-adv-x="604" 
d="M49 336q0 92 18.5 158t57.5 108t99.5 62t144.5 20q65 0 118 -9t77 -17l-12 -65q-38 11 -81.5 17.5t-90.5 6.5q-65 0 -111.5 -16t-76.5 -49.5t-44 -87t-14 -128.5t14 -128.5t44 -87t76.5 -49.5t111.5 -16q47 0 91 6.5t88 19.5v-68q-87 -25 -190 -25q-84 0 -144.5 20
t-99.5 62t-57.5 108t-18.5 158zM398 740h-80l-123 140h73l90 -95l90 95h73z" />
    <glyph glyph-name="Cdotaccent" unicode="&#x10a;" horiz-adv-x="604" 
d="M49 336q0 92 18.5 158t57.5 108t99.5 62t144.5 20q65 0 118 -9t77 -17l-12 -65q-38 11 -81.5 17.5t-90.5 6.5q-65 0 -111.5 -16t-76.5 -49.5t-44 -87t-14 -128.5t14 -128.5t44 -87t76.5 -49.5t111.5 -16q47 0 91 6.5t88 19.5v-68q-87 -25 -190 -25q-84 0 -144.5 20
t-99.5 62t-57.5 108t-18.5 158zM307 810q0 26 12 37.5t39 11.5t39 -11.5t12 -37.5t-12 -37.5t-39 -11.5t-39 11.5t-12 37.5z" />
    <glyph glyph-name="Dcaron" unicode="&#x10e;" horiz-adv-x="707" 
d="M169 66h133q72 0 123.5 15t84.5 48t48.5 84t15.5 123t-15.5 123t-48.5 84t-84.5 48t-123.5 15h-133v-540zM308 672q93 0 159 -19t108.5 -60t62.5 -104.5t20 -152.5t-20 -152.5t-62.5 -104.5t-108.5 -60t-159 -19h-222v609q0 9 -10 13l-30 13l7 37h255zM379 740h-80
l-123 140h73l90 -95l90 95h73z" />
    <glyph glyph-name="Dcroat" unicode="&#x110;" horiz-adv-x="731" 
d="M110 609q0 9 -10 13l-30 13l7 37h255q93 0 159 -19t108.5 -60t62.5 -104.5t20 -152.5t-20 -152.5t-62.5 -104t-108.5 -60t-159 -19.5h-222v312h-79v60h79v237zM193 372h181v-60h-181v-246h133q72 0 123.5 15t84.5 48t48.5 84t15.5 123t-15.5 123t-48.5 84t-84.5 48
t-123.5 15h-133v-234z" />
    <glyph glyph-name="Eth" unicode="&#xd0;" horiz-adv-x="731" 
d="M110 609q0 9 -10 13l-30 13l7 37h255q93 0 159 -19t108.5 -60t62.5 -104.5t20 -152.5t-20 -152.5t-62.5 -104t-108.5 -60t-159 -19.5h-222v312h-79v60h79v237zM193 372h181v-60h-181v-246h133q72 0 123.5 15t84.5 48t48.5 84t15.5 123t-15.5 123t-48.5 84t-84.5 48
t-123.5 15h-133v-234z" />
    <glyph glyph-name="Egrave" unicode="&#xc8;" horiz-adv-x="590" 
d="M537 672v-66h-368v-233h296v-62h-296v-245h376v-66h-459v609q0 9 -10 13l-30 13l7 37h484zM154 880h87l121 -140h-74z" />
    <glyph glyph-name="Eacute" unicode="&#xc9;" horiz-adv-x="590" 
d="M537 672v-66h-368v-233h296v-62h-296v-245h376v-66h-459v609q0 9 -10 13l-30 13l7 37h484zM330 740h-74l121 140h87z" />
    <glyph glyph-name="Ecircumflex" unicode="&#xca;" horiz-adv-x="590" 
d="M537 672v-66h-368v-233h296v-62h-296v-245h376v-66h-459v609q0 9 -10 13l-30 13l7 37h484zM269 880h80l123 -140h-73l-90 95l-90 -95h-73z" />
    <glyph glyph-name="Ecaron" unicode="&#x11a;" horiz-adv-x="590" 
d="M537 672v-66h-368v-233h296v-62h-296v-245h376v-66h-459v609q0 9 -10 13l-30 13l7 37h484zM349 740h-80l-123 140h73l90 -95l90 95h73z" />
    <glyph glyph-name="Edieresis" unicode="&#xcb;" horiz-adv-x="590" 
d="M537 672v-66h-368v-233h296v-62h-296v-245h376v-66h-459v609q0 9 -10 13l-30 13l7 37h484zM358 810q0 26 12 37.5t39 11.5q50 0 50 -49t-50 -49q-27 0 -39 11.5t-12 37.5zM159 810q0 49 50 49q27 0 39 -11.5t12 -37.5t-12 -37.5t-39 -11.5q-50 0 -50 49z" />
    <glyph glyph-name="Emacron" unicode="&#x112;" horiz-adv-x="590" 
d="M537 672v-66h-368v-233h296v-62h-296v-245h376v-66h-459v609q0 9 -10 13l-30 13l7 37h484zM158 839h302v-57h-302v57z" />
    <glyph glyph-name="Ebreve" unicode="&#x114;" horiz-adv-x="590" 
d="M537 672v-66h-368v-233h296v-62h-296v-245h376v-66h-459v609q0 9 -10 13l-30 13l7 37h484zM215 880q0 -51 21.5 -72.5t72.5 -21.5t72.5 21.5t21.5 72.5h58q0 -79 -36 -114t-116 -35t-116 35t-36 114h58z" />
    <glyph glyph-name="Edotaccent" unicode="&#x116;" horiz-adv-x="590" 
d="M537 672v-66h-368v-233h296v-62h-296v-245h376v-66h-459v609q0 9 -10 13l-30 13l7 37h484zM258 810q0 26 12 37.5t39 11.5t39 -11.5t12 -37.5t-12 -37.5t-39 -11.5t-39 11.5t-12 37.5z" />
    <glyph glyph-name="Eogonek" unicode="&#x118;" horiz-adv-x="590" 
d="M86 609q0 9 -10 13l-30 13l7 37h484v-64h-368v-235h296v-62h-296v-247h376v-64q-27 -25 -46 -44.5t-31 -35t-17 -29t-5 -25.5q0 -25 14.5 -36t47.5 -11q11 0 20.5 1t16.5 3v-49q-11 -3 -24.5 -4t-30.5 -1q-57 0 -82.5 20t-25.5 65q0 34 22.5 68t71.5 78h-390v609z" />
    <glyph glyph-name="Gcircumflex" unicode="&#x11c;" horiz-adv-x="673" 
d="M611 351v-336q-111 -27 -234 -27q-86 0 -148 20t-102 62t-59 108t-19 158q0 96 20.5 162t62.5 107.5t106.5 60t151.5 18.5q33 0 64.5 -2.5t58.5 -6.5t48.5 -8.5t33.5 -8.5l-12 -65q-38 11 -86.5 17.5t-95.5 6.5q-70 0 -121 -14.5t-84 -48t-49 -87t-16 -131.5
q0 -75 14.5 -128.5t45 -87.5t78.5 -50t116 -16q79 0 149 16v222h-172v59h249zM337 880h80l123 -140h-73l-90 95l-90 -95h-73z" />
    <glyph glyph-name="Gbreve" unicode="&#x11e;" horiz-adv-x="673" 
d="M611 351v-336q-111 -27 -234 -27q-86 0 -148 20t-102 62t-59 108t-19 158q0 96 20.5 162t62.5 107.5t106.5 60t151.5 18.5q33 0 64.5 -2.5t58.5 -6.5t48.5 -8.5t33.5 -8.5l-12 -65q-38 11 -86.5 17.5t-95.5 6.5q-70 0 -121 -14.5t-84 -48t-49 -87t-16 -131.5
q0 -75 14.5 -128.5t45 -87.5t78.5 -50t116 -16q79 0 149 16v222h-172v59h249zM283 880q0 -51 21.5 -72.5t72.5 -21.5t72.5 21.5t21.5 72.5h58q0 -79 -36 -114t-116 -35t-116 35t-36 114h58z" />
    <glyph glyph-name="Gdotaccent" unicode="&#x120;" horiz-adv-x="673" 
d="M611 351v-336q-111 -27 -234 -27q-86 0 -148 20t-102 62t-59 108t-19 158q0 96 20.5 162t62.5 107.5t106.5 60t151.5 18.5q33 0 64.5 -2.5t58.5 -6.5t48.5 -8.5t33.5 -8.5l-12 -65q-38 11 -86.5 17.5t-95.5 6.5q-70 0 -121 -14.5t-84 -48t-49 -87t-16 -131.5
q0 -75 14.5 -128.5t45 -87.5t78.5 -50t116 -16q79 0 149 16v222h-172v59h249zM326 810q0 26 12 37.5t39 11.5t39 -11.5t12 -37.5t-12 -37.5t-39 -11.5t-39 11.5t-12 37.5z" />
    <glyph glyph-name="Gcommaaccent" unicode="&#x122;" horiz-adv-x="673" 
d="M611 351v-336q-111 -27 -234 -27q-86 0 -148 20t-102 62t-59 108t-19 158q0 96 20.5 162t62.5 107.5t106.5 60t151.5 18.5q33 0 64.5 -2.5t58.5 -6.5t48.5 -8.5t33.5 -8.5l-12 -65q-38 11 -86.5 17.5t-95.5 6.5q-70 0 -121 -14.5t-84 -48t-49 -87t-16 -131.5
q0 -75 14.5 -128.5t45 -87.5t78.5 -50t116 -16q79 0 149 16v222h-172v59h249zM365 -256h-56l50 188h71z" />
    <glyph glyph-name="Hcircumflex" unicode="&#x124;" horiz-adv-x="739" 
d="M169 375h404v297h83v-672h-83v309h-404v-309h-83v609q0 9 -10 13l-30 13l7 37h107q9 0 9 -10v-287zM331 880h80l123 -140h-73l-90 95l-90 -95h-73z" />
    <glyph glyph-name="Hbar" unicode="&#x126;" horiz-adv-x="737" 
d="M84 521h-71v56h71v95h83v-95h404v95h83v-95h70v-56h-70v-521h-83v306h-404v-306h-83v521zM571 372v149h-404v-149h404z" />
    <glyph glyph-name="Igrave" unicode="&#xcc;" horiz-adv-x="254" 
d="M170 0h-83v609q0 9 -10 13l-30 13l7 37h107q9 0 9 -10v-662zM-27 880h87l121 -140h-74z" />
    <glyph glyph-name="Iacute" unicode="&#xcd;" horiz-adv-x="254" 
d="M170 0h-83v609q0 9 -10 13l-30 13l7 37h107q9 0 9 -10v-662zM149 740h-74l121 140h87z" />
    <glyph glyph-name="Icircumflex" unicode="&#xce;" horiz-adv-x="254" 
d="M170 0h-83v609q0 9 -10 13l-30 13l7 37h107q9 0 9 -10v-662zM88 880h80l123 -140h-73l-90 95l-90 -95h-73z" />
    <glyph glyph-name="Itilde" unicode="&#x128;" horiz-adv-x="254" 
d="M170 0h-83v609q0 9 -10 13l-30 13l7 37h107q9 0 9 -10v-662zM-27 761q0 54 21 78t67 24q21 0 38 -8t31 -17.5t27 -17.5t27 -8q23 0 32 11.5t9 39.5v7h58v-11q0 -54 -21 -78t-67 -24q-21 0 -38 8t-31 17.5t-27.5 17.5t-26.5 8q-23 0 -32 -11.5t-9 -39.5v-6h-58v10z" />
    <glyph glyph-name="Idieresis" unicode="&#xcf;" horiz-adv-x="254" 
d="M170 0h-83v609q0 9 -10 13l-30 13l7 37h107q9 0 9 -10v-662zM177 810q0 26 12 37.5t39 11.5q50 0 50 -49t-50 -49q-27 0 -39 11.5t-12 37.5zM-22 810q0 49 50 49q27 0 39 -11.5t12 -37.5t-12 -37.5t-39 -11.5q-50 0 -50 49z" />
    <glyph glyph-name="Imacron" unicode="&#x12a;" horiz-adv-x="254" 
d="M170 0h-83v609q0 9 -10 13l-30 13l7 37h107q9 0 9 -10v-662zM-23 839h302v-57h-302v57z" />
    <glyph glyph-name="Ibreve" unicode="&#x12c;" horiz-adv-x="254" 
d="M170 0h-83v609q0 9 -10 13l-30 13l7 37h107q9 0 9 -10v-662zM34 880q0 -51 21.5 -72.5t72.5 -21.5t72.5 21.5t21.5 72.5h58q0 -79 -36 -114t-116 -35t-116 35t-36 114h58z" />
    <glyph glyph-name="Idotaccent" unicode="&#x130;" horiz-adv-x="254" 
d="M170 0h-83v609q0 9 -10 13l-30 13l7 37h107q9 0 9 -10v-662zM77 810q0 26 12 37.5t39 11.5t39 -11.5t12 -37.5t-12 -37.5t-39 -11.5t-39 11.5t-12 37.5z" />
    <glyph glyph-name="Iogonek" unicode="&#x12e;" horiz-adv-x="254" 
d="M87 609q0 9 -10 13l-30 13l7 37h107q9 0 9 -10v-662q-27 -25 -46 -44.5t-31 -35t-17 -29t-5 -25.5q0 -25 14.5 -36t47.5 -11q11 0 20.5 1t16.5 3v-49q-11 -3 -24.5 -4t-30.5 -1q-57 0 -82.5 20t-25.5 65q0 34 22.5 68t71.5 78h-14v609z" />
    <glyph glyph-name="IJ" unicode="&#x132;" horiz-adv-x="692" 
d="M170 0h-83v609q0 9 -10 13l-30 13l7 37h107q9 0 9 -10v-662zM609 194q0 -108 -50 -157t-161 -49q-64 0 -116 13v67q27 -6 53 -9.5t51 -3.5q75 0 107.5 33t32.5 109v475h83v-478z" />
    <glyph glyph-name="Jcircumflex" unicode="&#x134;" horiz-adv-x="439" 
d="M356 194q0 -108 -50 -157t-161 -49q-64 0 -116 13v67q27 -6 53 -9.5t51 -3.5q75 0 107.5 33t32.5 109v475h83v-478zM274 880h80l123 -140h-73l-90 95l-90 -95h-73z" />
    <glyph glyph-name="Kcommaaccent" unicode="&#x136;" horiz-adv-x="607" 
d="M169 343l314 329h97l-294 -311l302 -361h-97l-256 309l-66 -68v-241h-83v609q0 9 -10 13l-30 13l7 37h107q9 0 9 -10v-319zM290 -256h-56l50 188h71z" />
    <glyph glyph-name="Lacute" unicode="&#x139;" horiz-adv-x="515" 
d="M169 66h325v-66h-408v609q0 9 -10 13l-30 13l7 37h107q9 0 9 -10v-596zM148 740h-74l121 140h87z" />
    <glyph glyph-name="Lcaron" unicode="&#x13d;" horiz-adv-x="515" 
d="M169 66h325v-66h-408v609q0 9 -10 13l-30 13l7 37h107q9 0 9 -10v-596zM300 522h-56l50 188h71z" />
    <glyph glyph-name="Lcommaaccent" unicode="&#x13b;" horiz-adv-x="515" 
d="M169 66h325v-66h-408v609q0 9 -10 13l-30 13l7 37h107q9 0 9 -10v-596zM281 -256h-56l50 188h71z" />
    <glyph glyph-name="Lslash" unicode="&#x141;" horiz-adv-x="529" 
d="M100 609q0 9 -10 13l-30 13l7 37h107q9 0 9 -10v-274l165 83v-64l-165 -83v-258h325v-66h-408v283l-79 -40v64l79 39v263z" />
    <glyph glyph-name="Ldot" unicode="&#x13f;" horiz-adv-x="515" 
d="M169 66h325v-66h-408v609q0 9 -10 13l-30 13l7 37h107q9 0 9 -10v-596zM329 355q0 26 12 37.5t39 11.5t39 -11.5t12 -37.5t-12 -37.5t-39 -11.5t-39 11.5t-12 37.5z" />
    <glyph glyph-name="Nacute" unicode="&#x143;" horiz-adv-x="739" 
d="M86 609q0 9 -10 13l-30 13l7 37h94q14 0 19.5 -2.5t10.5 -10.5l402 -544v557h77v-672h-81l-412 557v-557h-77v609zM392 740h-74l121 140h87z" />
    <glyph glyph-name="Ncaron" unicode="&#x147;" horiz-adv-x="739" 
d="M86 609q0 9 -10 13l-30 13l7 37h94q14 0 19.5 -2.5t10.5 -10.5l402 -544v557h77v-672h-81l-412 557v-557h-77v609zM411 740h-80l-123 140h73l90 -95l90 95h73z" />
    <glyph glyph-name="Ntilde" unicode="&#xd1;" horiz-adv-x="739" 
d="M86 609q0 9 -10 13l-30 13l7 37h94q14 0 19.5 -2.5t10.5 -10.5l402 -544v557h77v-672h-81l-412 557v-557h-77v609zM216 761q0 54 21 78t67 24q21 0 38 -8t31 -17.5t27 -17.5t27 -8q23 0 32 11.5t9 39.5v7h58v-11q0 -54 -21 -78t-67 -24q-21 0 -38 8t-31 17.5t-27.5 17.5
t-26.5 8q-23 0 -32 -11.5t-9 -39.5v-6h-58v10z" />
    <glyph glyph-name="Ncommaaccent" unicode="&#x145;" horiz-adv-x="739" 
d="M86 609q0 9 -10 13l-30 13l7 37h94q14 0 19.5 -2.5t10.5 -10.5l402 -544v557h77v-672h-81l-412 557v-557h-77v609zM359 -256h-56l50 188h71z" />
    <glyph glyph-name="Eng" unicode="&#x14a;" horiz-adv-x="739" 
d="M86 609q0 9 -10 13l-30 13l7 37h94q14 0 19.5 -2.5t10.5 -10.5l402 -544v557h77v-686q0 -108 -50 -157t-161 -49q-30 0 -59 3t-57 10v67q27 -6 53 -9.5t51 -3.5q75 0 109 30t34 98v22l-413 560v-557h-77v609z" />
    <glyph glyph-name="Ograve" unicode="&#xd2;" horiz-adv-x="737" 
d="M49 336q0 92 18.5 158t57.5 108t99.5 62t144.5 20t144.5 -20t99.5 -62t57 -108t18 -158t-18 -158t-57 -108t-99.5 -62t-144.5 -20t-144.5 20t-99.5 62t-57.5 108t-18.5 158zM134 336q0 -75 13 -128.5t41.5 -87t73 -49.5t107.5 -16q62 0 106.5 16t73 49.5t42 87
t13.5 128.5t-13.5 128.5t-42 87t-73 49.5t-106.5 16q-63 0 -107.5 -16t-73 -49.5t-41.5 -87t-13 -128.5zM214 880h87l121 -140h-74z" />
    <glyph glyph-name="Oacute" unicode="&#xd3;" horiz-adv-x="737" 
d="M49 336q0 92 18.5 158t57.5 108t99.5 62t144.5 20t144.5 -20t99.5 -62t57 -108t18 -158t-18 -158t-57 -108t-99.5 -62t-144.5 -20t-144.5 20t-99.5 62t-57.5 108t-18.5 158zM134 336q0 -75 13 -128.5t41.5 -87t73 -49.5t107.5 -16q62 0 106.5 16t73 49.5t42 87
t13.5 128.5t-13.5 128.5t-42 87t-73 49.5t-106.5 16q-63 0 -107.5 -16t-73 -49.5t-41.5 -87t-13 -128.5zM390 740h-74l121 140h87z" />
    <glyph glyph-name="Ocircumflex" unicode="&#xd4;" horiz-adv-x="737" 
d="M49 336q0 92 18.5 158t57.5 108t99.5 62t144.5 20t144.5 -20t99.5 -62t57 -108t18 -158t-18 -158t-57 -108t-99.5 -62t-144.5 -20t-144.5 20t-99.5 62t-57.5 108t-18.5 158zM134 336q0 -75 13 -128.5t41.5 -87t73 -49.5t107.5 -16q62 0 106.5 16t73 49.5t42 87
t13.5 128.5t-13.5 128.5t-42 87t-73 49.5t-106.5 16q-63 0 -107.5 -16t-73 -49.5t-41.5 -87t-13 -128.5zM329 880h80l123 -140h-73l-90 95l-90 -95h-73z" />
    <glyph glyph-name="Otilde" unicode="&#xd5;" horiz-adv-x="737" 
d="M49 336q0 92 18.5 158t57.5 108t99.5 62t144.5 20t144.5 -20t99.5 -62t57 -108t18 -158t-18 -158t-57 -108t-99.5 -62t-144.5 -20t-144.5 20t-99.5 62t-57.5 108t-18.5 158zM134 336q0 -75 13 -128.5t41.5 -87t73 -49.5t107.5 -16q62 0 106.5 16t73 49.5t42 87
t13.5 128.5t-13.5 128.5t-42 87t-73 49.5t-106.5 16q-63 0 -107.5 -16t-73 -49.5t-41.5 -87t-13 -128.5zM214 761q0 54 21 78t67 24q21 0 38 -8t31 -17.5t27 -17.5t27 -8q23 0 32 11.5t9 39.5v7h58v-11q0 -54 -21 -78t-67 -24q-21 0 -38 8t-31 17.5t-27.5 17.5t-26.5 8
q-23 0 -32 -11.5t-9 -39.5v-6h-58v10z" />
    <glyph glyph-name="Odieresis" unicode="&#xd6;" horiz-adv-x="737" 
d="M49 336q0 92 18.5 158t57.5 108t99.5 62t144.5 20t144.5 -20t99.5 -62t57 -108t18 -158t-18 -158t-57 -108t-99.5 -62t-144.5 -20t-144.5 20t-99.5 62t-57.5 108t-18.5 158zM134 336q0 -75 13 -128.5t41.5 -87t73 -49.5t107.5 -16q62 0 106.5 16t73 49.5t42 87
t13.5 128.5t-13.5 128.5t-42 87t-73 49.5t-106.5 16q-63 0 -107.5 -16t-73 -49.5t-41.5 -87t-13 -128.5zM418 810q0 26 12 37.5t39 11.5q50 0 50 -49t-50 -49q-27 0 -39 11.5t-12 37.5zM219 810q0 49 50 49q27 0 39 -11.5t12 -37.5t-12 -37.5t-39 -11.5q-50 0 -50 49z" />
    <glyph glyph-name="Omacron" unicode="&#x14c;" horiz-adv-x="737" 
d="M49 336q0 92 18.5 158t57.5 108t99.5 62t144.5 20t144.5 -20t99.5 -62t57 -108t18 -158t-18 -158t-57 -108t-99.5 -62t-144.5 -20t-144.5 20t-99.5 62t-57.5 108t-18.5 158zM134 336q0 -75 13 -128.5t41.5 -87t73 -49.5t107.5 -16q62 0 106.5 16t73 49.5t42 87
t13.5 128.5t-13.5 128.5t-42 87t-73 49.5t-106.5 16q-63 0 -107.5 -16t-73 -49.5t-41.5 -87t-13 -128.5zM218 839h302v-57h-302v57z" />
    <glyph glyph-name="Obreve" unicode="&#x14e;" horiz-adv-x="737" 
d="M49 336q0 92 18.5 158t57.5 108t99.5 62t144.5 20t144.5 -20t99.5 -62t57 -108t18 -158t-18 -158t-57 -108t-99.5 -62t-144.5 -20t-144.5 20t-99.5 62t-57.5 108t-18.5 158zM134 336q0 -75 13 -128.5t41.5 -87t73 -49.5t107.5 -16q62 0 106.5 16t73 49.5t42 87
t13.5 128.5t-13.5 128.5t-42 87t-73 49.5t-106.5 16q-63 0 -107.5 -16t-73 -49.5t-41.5 -87t-13 -128.5zM275 880q0 -51 21.5 -72.5t72.5 -21.5t72.5 21.5t21.5 72.5h58q0 -79 -36 -114t-116 -35t-116 35t-36 114h58z" />
    <glyph glyph-name="Ohungarumlaut" unicode="&#x150;" horiz-adv-x="737" 
d="M49 336q0 92 18.5 158t57.5 108t99.5 62t144.5 20t144.5 -20t99.5 -62t57 -108t18 -158t-18 -158t-57 -108t-99.5 -62t-144.5 -20t-144.5 20t-99.5 62t-57.5 108t-18.5 158zM134 336q0 -75 13 -128.5t41.5 -87t73 -49.5t107.5 -16q62 0 106.5 16t73 49.5t42 87
t13.5 128.5t-13.5 128.5t-42 87t-73 49.5t-106.5 16q-63 0 -107.5 -16t-73 -49.5t-41.5 -87t-13 -128.5zM491 740h-75l121 140h87zM291 740h-75l122 140h86z" />
    <glyph glyph-name="Oslash" unicode="&#xd8;" horiz-adv-x="737" 
d="M49 336q0 92 18.5 158t57.5 108t99.5 62t144.5 20q124 0 196 -44l48 64h64l-72 -95q43 -42 63 -109t20 -164q0 -92 -18 -158t-57 -108t-99.5 -62t-144.5 -20q-123 0 -197 43l-47 -63h-64l71 94q-43 42 -63 109.5t-20 164.5zM128 336q0 -144 51 -211l342 457
q-54 38 -152 38q-64 0 -109.5 -16t-75 -50.5t-43 -88t-13.5 -129.5zM609 336q0 143 -51 210l-342 -457q28 -20 66 -28.5t87 -8.5q64 0 109.5 16t74.5 50.5t42.5 88t13.5 129.5z" />
    <glyph glyph-name="Oslashacute" unicode="&#x1fe;" horiz-adv-x="737" 
d="M49 336q0 92 18.5 158t57.5 108t99.5 62t144.5 20q124 0 196 -44l48 64h64l-72 -95q43 -42 63 -109t20 -164q0 -92 -18 -158t-57 -108t-99.5 -62t-144.5 -20q-123 0 -197 43l-47 -63h-64l71 94q-43 42 -63 109.5t-20 164.5zM128 336q0 -144 51 -211l342 457
q-54 38 -152 38q-64 0 -109.5 -16t-75 -50.5t-43 -88t-13.5 -129.5zM609 336q0 143 -51 210l-342 -457q28 -20 66 -28.5t87 -8.5q64 0 109.5 16t74.5 50.5t42.5 88t13.5 129.5zM390 740h-74l121 140h87z" />
    <glyph glyph-name="OE" unicode="&#x152;" horiz-adv-x="1022" 
d="M969 608h-360v-235h288v-62h-288v-247h368v-64h-578q-92 0 -158.5 19t-109 60t-62.5 104.5t-20 152.5t20 152.5t62.5 104.5t109 60t158.5 19h570v-64zM526 606h-121q-72 0 -123.5 -15t-84.5 -48t-48 -84t-15 -123t15 -123t48 -84t84.5 -48t123.5 -15h121v540z" />
    <glyph glyph-name="Thorn" unicode="&#xde;" horiz-adv-x="627" 
d="M86 609q0 9 -10 13l-30 13l7 37h113v-123h184q125 0 180.5 -49t55.5 -158t-55.5 -158t-180.5 -49h-184v-135h-80v609zM166 201h178q86 0 123.5 33t37.5 108t-37.5 108t-123.5 33h-178v-282z" />
    <glyph glyph-name="Racute" unicode="&#x154;" horiz-adv-x="643" 
d="M166 339h183q84 0 120 30.5t36 103.5t-36 104t-120 31h-183v-269zM166 275v-275h-80v609q0 9 -10 13l-30 13l7 37h305q121 0 174.5 -46.5t53.5 -152.5q0 -89 -39.5 -134.5t-126.5 -54.5l180 -284h-91l-171 275h-172zM344 740h-74l121 140h87z" />
    <glyph glyph-name="Rcaron" unicode="&#x158;" horiz-adv-x="643" 
d="M166 339h183q84 0 120 30.5t36 103.5t-36 104t-120 31h-183v-269zM166 275v-275h-80v609q0 9 -10 13l-30 13l7 37h305q121 0 174.5 -46.5t53.5 -152.5q0 -89 -39.5 -134.5t-126.5 -54.5l180 -284h-91l-171 275h-172zM363 740h-80l-123 140h73l90 -95l90 95h73z" />
    <glyph glyph-name="Rcommaaccent" unicode="&#x156;" horiz-adv-x="641" 
d="M164 339h183q84 0 120 30.5t36 103.5t-36 104t-120 31h-183v-269zM164 275v-275h-80v609q0 9 -10 13l-30 13l7 37h305q121 0 174.5 -46.5t53.5 -152.5q0 -89 -39.5 -134.5t-126.5 -54.5l180 -284h-91l-171 275h-172zM309 -256h-56l50 188h71z" />
    <glyph glyph-name="Sacute" unicode="&#x15a;" horiz-adv-x="588" 
d="M56 497q0 88 59 137.5t187 49.5q56 0 109 -8.5t98 -22.5l-12 -64q-48 16 -94 23t-95 7q-91 0 -131.5 -26.5t-40.5 -93.5q0 -33 17 -53.5t45.5 -34t64 -23t73 -19t73.5 -22.5t64.5 -34.5t45.5 -53.5t17 -80q0 -98 -61 -144.5t-189 -46.5q-58 0 -115 8t-111 25v67
q55 -18 109.5 -26.5t110.5 -8.5q93 0 134.5 28.5t41.5 95.5q0 46 -29.5 71t-74 39.5t-96.5 26t-96.5 31.5t-74 55t-29.5 97zM315 740h-74l121 140h87z" />
    <glyph glyph-name="Scircumflex" unicode="&#x15c;" horiz-adv-x="588" 
d="M56 497q0 88 59 137.5t187 49.5q56 0 109 -8.5t98 -22.5l-12 -64q-48 16 -94 23t-95 7q-91 0 -131.5 -26.5t-40.5 -93.5q0 -33 17 -53.5t45.5 -34t64 -23t73 -19t73.5 -22.5t64.5 -34.5t45.5 -53.5t17 -80q0 -98 -61 -144.5t-189 -46.5q-58 0 -115 8t-111 25v67
q55 -18 109.5 -26.5t110.5 -8.5q93 0 134.5 28.5t41.5 95.5q0 46 -29.5 71t-74 39.5t-96.5 26t-96.5 31.5t-74 55t-29.5 97zM261 880h80l123 -140h-73l-90 95l-90 -95h-73z" />
    <glyph glyph-name="Scaron" unicode="&#x160;" horiz-adv-x="588" 
d="M56 497q0 88 59 137.5t187 49.5q56 0 109 -8.5t98 -22.5l-12 -64q-48 16 -94 23t-95 7q-91 0 -131.5 -26.5t-40.5 -93.5q0 -33 17 -53.5t45.5 -34t64 -23t73 -19t73.5 -22.5t64.5 -34.5t45.5 -53.5t17 -80q0 -98 -61 -144.5t-189 -46.5q-58 0 -115 8t-111 25v67
q55 -18 109.5 -26.5t110.5 -8.5q93 0 134.5 28.5t41.5 95.5q0 46 -29.5 71t-74 39.5t-96.5 26t-96.5 31.5t-74 55t-29.5 97zM344 740h-80l-123 140h73l90 -95l90 95h73z" />
    <glyph glyph-name="Scedilla" unicode="&#x15e;" horiz-adv-x="588" 
d="M261 -12q-52 2 -102.5 9.5t-98.5 23.5v67q55 -18 109.5 -26.5t110.5 -8.5q93 0 134.5 28.5t41.5 95.5q0 46 -29.5 71t-74 39.5t-96.5 26t-96.5 31.5t-74 55t-29.5 97q0 88 59 137.5t187 49.5q56 0 109 -8.5t98 -22.5l-12 -64q-48 16 -94 23t-95 7q-91 0 -131.5 -26.5
t-40.5 -93.5q0 -33 17 -53.5t45.5 -34t64 -23t73 -19t73.5 -22.5t64.5 -34.5t45.5 -53.5t17 -80q0 -92 -53.5 -138.5t-165.5 -51.5v-49q42 -3 61.5 -22.5t19.5 -59.5q0 -48 -29.5 -68.5t-94.5 -20.5q-23 0 -44 2.5t-41 7.5v48q20 -5 37.5 -8.5t37.5 -3.5q38 0 54 10t16 35
q0 24 -14.5 34t-50.5 10h-8v84z" />
    <glyph glyph-name="Scommaaccent" unicode="&#x218;" horiz-adv-x="588" 
d="M56 497q0 88 59 137.5t187 49.5q56 0 109 -8.5t98 -22.5l-12 -64q-48 16 -94 23t-95 7q-91 0 -131.5 -26.5t-40.5 -93.5q0 -33 17 -53.5t45.5 -34t64 -23t73 -19t73.5 -22.5t64.5 -34.5t45.5 -53.5t17 -80q0 -98 -61 -144.5t-189 -46.5q-58 0 -115 8t-111 25v67
q55 -18 109.5 -26.5t110.5 -8.5q93 0 134.5 28.5t41.5 95.5q0 46 -29.5 71t-74 39.5t-96.5 26t-96.5 31.5t-74 55t-29.5 97zM272 -256h-56l50 188h71z" />
    <glyph glyph-name="Tcaron" unicode="&#x164;" horiz-adv-x="593" 
d="M255 606h-234v66h551v-66h-234v-606h-83v606zM337 740h-80l-123 140h73l90 -95l90 95h73z" />
    <glyph glyph-name="Tcommaaccent" unicode="&#x162;" horiz-adv-x="593" 
d="M255 606h-234v66h551v-66h-234v-606h-83v606zM285 -256h-56l50 188h71z" />
    <glyph glyph-name="uni021A" unicode="&#x21a;" horiz-adv-x="593" 
d="M255 606h-234v66h551v-66h-234v-606h-83v606zM285 -256h-56l50 188h71z" />
    <glyph glyph-name="Tbar" unicode="&#x166;" horiz-adv-x="593" 
d="M255 287h-152v59h152v260h-234v66h551v-66h-234v-260h152v-59h-152v-287h-83v287z" />
    <glyph glyph-name="Ugrave" unicode="&#xd9;" horiz-adv-x="732" 
d="M165 263q0 -111 47 -159.5t155 -48.5q107 0 154.5 48.5t47.5 159.5v409h83v-415q0 -71 -16.5 -122t-51 -83.5t-88.5 -48t-129 -15.5t-129 15.5t-88.5 48t-51 83.5t-16.5 122v352q0 9 -10 13l-30 13l7 37h107q9 0 9 -10v-399zM212 880h87l121 -140h-74z" />
    <glyph glyph-name="Uacute" unicode="&#xda;" horiz-adv-x="732" 
d="M165 263q0 -111 47 -159.5t155 -48.5q107 0 154.5 48.5t47.5 159.5v409h83v-415q0 -71 -16.5 -122t-51 -83.5t-88.5 -48t-129 -15.5t-129 15.5t-88.5 48t-51 83.5t-16.5 122v352q0 9 -10 13l-30 13l7 37h107q9 0 9 -10v-399zM388 740h-74l121 140h87z" />
    <glyph glyph-name="Ucircumflex" unicode="&#xdb;" horiz-adv-x="732" 
d="M165 263q0 -111 47 -159.5t155 -48.5q107 0 154.5 48.5t47.5 159.5v409h83v-415q0 -71 -16.5 -122t-51 -83.5t-88.5 -48t-129 -15.5t-129 15.5t-88.5 48t-51 83.5t-16.5 122v352q0 9 -10 13l-30 13l7 37h107q9 0 9 -10v-399zM327 880h80l123 -140h-73l-90 95l-90 -95h-73
z" />
    <glyph glyph-name="Utilde" unicode="&#x168;" horiz-adv-x="732" 
d="M165 263q0 -111 47 -159.5t155 -48.5q107 0 154.5 48.5t47.5 159.5v409h83v-415q0 -71 -16.5 -122t-51 -83.5t-88.5 -48t-129 -15.5t-129 15.5t-88.5 48t-51 83.5t-16.5 122v352q0 9 -10 13l-30 13l7 37h107q9 0 9 -10v-399zM212 761q0 54 21 78t67 24q21 0 38 -8
t31 -17.5t27 -17.5t27 -8q23 0 32 11.5t9 39.5v7h58v-11q0 -54 -21 -78t-67 -24q-21 0 -38 8t-31 17.5t-27.5 17.5t-26.5 8q-23 0 -32 -11.5t-9 -39.5v-6h-58v10z" />
    <glyph glyph-name="Udieresis" unicode="&#xdc;" horiz-adv-x="732" 
d="M165 263q0 -111 47 -159.5t155 -48.5q107 0 154.5 48.5t47.5 159.5v409h83v-415q0 -71 -16.5 -122t-51 -83.5t-88.5 -48t-129 -15.5t-129 15.5t-88.5 48t-51 83.5t-16.5 122v352q0 9 -10 13l-30 13l7 37h107q9 0 9 -10v-399zM416 810q0 26 12 37.5t39 11.5q50 0 50 -49
t-50 -49q-27 0 -39 11.5t-12 37.5zM217 810q0 49 50 49q27 0 39 -11.5t12 -37.5t-12 -37.5t-39 -11.5q-50 0 -50 49z" />
    <glyph glyph-name="Umacron" unicode="&#x16a;" horiz-adv-x="732" 
d="M165 263q0 -111 47 -159.5t155 -48.5q107 0 154.5 48.5t47.5 159.5v409h83v-415q0 -71 -16.5 -122t-51 -83.5t-88.5 -48t-129 -15.5t-129 15.5t-88.5 48t-51 83.5t-16.5 122v352q0 9 -10 13l-30 13l7 37h107q9 0 9 -10v-399zM216 839h302v-57h-302v57z" />
    <glyph glyph-name="Ubreve" unicode="&#x16c;" horiz-adv-x="732" 
d="M165 263q0 -111 47 -159.5t155 -48.5q107 0 154.5 48.5t47.5 159.5v409h83v-415q0 -71 -16.5 -122t-51 -83.5t-88.5 -48t-129 -15.5t-129 15.5t-88.5 48t-51 83.5t-16.5 122v352q0 9 -10 13l-30 13l7 37h107q9 0 9 -10v-399zM273 880q0 -51 21.5 -72.5t72.5 -21.5
t72.5 21.5t21.5 72.5h58q0 -79 -36 -114t-116 -35t-116 35t-36 114h58z" />
    <glyph glyph-name="Uring" unicode="&#x16e;" horiz-adv-x="732" 
d="M165 263q0 -111 47 -159.5t155 -48.5q107 0 154.5 48.5t47.5 159.5v409h83v-415q0 -71 -16.5 -122t-51 -83.5t-88.5 -48t-129 -15.5t-129 15.5t-88.5 48t-51 83.5t-16.5 122v352q0 9 -10 13l-30 13l7 37h107q9 0 9 -10v-399zM264 810q0 50 24.5 72t78.5 22t78.5 -22
t24.5 -72q0 -49 -24.5 -71.5t-78.5 -22.5t-78.5 22.5t-24.5 71.5zM311 810q0 -30 13 -43t43 -13t43 12.5t13 43.5q0 30 -13 43.5t-43 13.5t-43 -13.5t-13 -43.5z" />
    <glyph glyph-name="Uhungarumlaut" unicode="&#x170;" horiz-adv-x="732" 
d="M165 263q0 -111 47 -159.5t155 -48.5q107 0 154.5 48.5t47.5 159.5v409h83v-415q0 -71 -16.5 -122t-51 -83.5t-88.5 -48t-129 -15.5t-129 15.5t-88.5 48t-51 83.5t-16.5 122v352q0 9 -10 13l-30 13l7 37h107q9 0 9 -10v-399zM489 740h-75l121 140h87zM289 740h-75
l122 140h86z" />
    <glyph glyph-name="Uogonek" unicode="&#x172;" horiz-adv-x="732" 
d="M82 609q0 9 -10 13l-30 13l7 37h107q9 0 9 -10v-399q0 -111 47 -159.5t155 -48.5q107 0 154.5 48.5t47.5 159.5v409h83v-415q0 -56 -8.5 -96.5t-27 -70.5t-49 -52t-73.5 -39q-69 -27 -104.5 -64t-35.5 -69q0 -25 14.5 -36t47.5 -11q11 0 20.5 1t16.5 3v-49
q-11 -3 -24.5 -4t-29.5 -1q-57 0 -83 20t-26 65q0 70 98 137q-14 -2 -27 -2h-26q-67 3 -115 20t-78.5 50t-45 82t-14.5 116v352z" />
    <glyph glyph-name="Wgrave" unicode="&#x1e80;" horiz-adv-x="974" 
d="M487 538q-5 -30 -12.5 -66t-17 -74.5t-20 -77t-20.5 -71.5q-18 -60 -40 -122.5t-46 -126.5h-93q-30 76 -60 166t-56.5 180.5t-47.5 175t-34 150.5h82q4 -24 11.5 -56t16.5 -70t20 -79.5t22 -83.5q25 -95 49 -171t44 -127h2q20 51 43 127t49 171q11 42 22 82t20 76t16 66
t12 51h77q9 -45 28 -117.5t42 -157.5q26 -95 49 -171t43 -127h2q20 51 44 127t49 171q11 42 22 83.5t20 79.5t16 70t12 56h81q-13 -66 -34 -150.5t-47.5 -175t-56 -180.5t-59.5 -166h-93q-48 128 -86 249q-11 33 -21.5 71.5t-19.5 77t-17 74.5t-12 66h-1zM338 880h87
l121 -140h-74z" />
    <glyph glyph-name="Wacute" unicode="&#x1e82;" horiz-adv-x="974" 
d="M487 538q-5 -30 -12.5 -66t-17 -74.5t-20 -77t-20.5 -71.5q-18 -60 -40 -122.5t-46 -126.5h-93q-30 76 -60 166t-56.5 180.5t-47.5 175t-34 150.5h82q4 -24 11.5 -56t16.5 -70t20 -79.5t22 -83.5q25 -95 49 -171t44 -127h2q20 51 43 127t49 171q11 42 22 82t20 76t16 66
t12 51h77q9 -45 28 -117.5t42 -157.5q26 -95 49 -171t43 -127h2q20 51 44 127t49 171q11 42 22 83.5t20 79.5t16 70t12 56h81q-13 -66 -34 -150.5t-47.5 -175t-56 -180.5t-59.5 -166h-93q-48 128 -86 249q-11 33 -21.5 71.5t-19.5 77t-17 74.5t-12 66h-1zM514 740h-74
l121 140h87z" />
    <glyph glyph-name="Wcircumflex" unicode="&#x174;" horiz-adv-x="974" 
d="M487 538q-5 -30 -12.5 -66t-17 -74.5t-20 -77t-20.5 -71.5q-18 -60 -40 -122.5t-46 -126.5h-93q-30 76 -60 166t-56.5 180.5t-47.5 175t-34 150.5h82q4 -24 11.5 -56t16.5 -70t20 -79.5t22 -83.5q25 -95 49 -171t44 -127h2q20 51 43 127t49 171q11 42 22 82t20 76t16 66
t12 51h77q9 -45 28 -117.5t42 -157.5q26 -95 49 -171t43 -127h2q20 51 44 127t49 171q11 42 22 83.5t20 79.5t16 70t12 56h81q-13 -66 -34 -150.5t-47.5 -175t-56 -180.5t-59.5 -166h-93q-48 128 -86 249q-11 33 -21.5 71.5t-19.5 77t-17 74.5t-12 66h-1zM448 880h80
l123 -140h-73l-90 95l-90 -95h-73z" />
    <glyph glyph-name="Wdieresis" unicode="&#x1e84;" horiz-adv-x="974" 
d="M487 538q-5 -30 -12.5 -66t-17 -74.5t-20 -77t-20.5 -71.5q-18 -60 -40 -122.5t-46 -126.5h-93q-30 76 -60 166t-56.5 180.5t-47.5 175t-34 150.5h82q4 -24 11.5 -56t16.5 -70t20 -79.5t22 -83.5q25 -95 49 -171t44 -127h2q20 51 43 127t49 171q11 42 22 82t20 76t16 66
t12 51h77q9 -45 28 -117.5t42 -157.5q26 -95 49 -171t43 -127h2q20 51 44 127t49 171q11 42 22 83.5t20 79.5t16 70t12 56h81q-13 -66 -34 -150.5t-47.5 -175t-56 -180.5t-59.5 -166h-93q-48 128 -86 249q-11 33 -21.5 71.5t-19.5 77t-17 74.5t-12 66h-1zM537 810
q0 26 12 37.5t39 11.5q50 0 50 -49t-50 -49q-27 0 -39 11.5t-12 37.5zM338 810q0 49 50 49q27 0 39 -11.5t12 -37.5t-12 -37.5t-39 -11.5q-50 0 -50 49z" />
    <glyph glyph-name="Ygrave" unicode="&#x1ef2;" horiz-adv-x="599" 
d="M258 287l-246 385h92l197 -313l195 313h92l-247 -385v-287h-83v287zM145 880h87l121 -140h-74z" />
    <glyph glyph-name="Yacute" unicode="&#xdd;" horiz-adv-x="599" 
d="M258 287l-246 385h92l197 -313l195 313h92l-247 -385v-287h-83v287zM321 740h-74l121 140h87z" />
    <glyph glyph-name="Ycircumflex" unicode="&#x176;" horiz-adv-x="599" 
d="M258 287l-246 385h92l197 -313l195 313h92l-247 -385v-287h-83v287zM260 880h80l123 -140h-73l-90 95l-90 -95h-73z" />
    <glyph glyph-name="Ydieresis" unicode="&#x178;" horiz-adv-x="599" 
d="M258 287l-246 385h92l197 -313l195 313h92l-247 -385v-287h-83v287zM349 820q0 26 12 37.5t39 11.5q50 0 50 -49t-50 -49q-27 0 -39 11.5t-12 37.5zM150 820q0 49 50 49q27 0 39 -11.5t12 -37.5t-12 -37.5t-39 -11.5q-50 0 -50 49z" />
    <glyph glyph-name="Zacute" unicode="&#x179;" horiz-adv-x="620" 
d="M463 606h-411v66h515v-58l-418 -548h426v-66h-531v58zM331 740h-74l121 140h87z" />
    <glyph glyph-name="Zcaron" unicode="&#x17d;" horiz-adv-x="620" 
d="M463 606h-411v66h515v-58l-418 -548h426v-66h-531v58zM350 740h-80l-123 140h73l90 -95l90 95h73z" />
    <glyph glyph-name="Zdotaccent" unicode="&#x17b;" horiz-adv-x="620" 
d="M463 606h-411v66h515v-58l-418 -548h426v-66h-531v58zM259 810q0 26 12 37.5t39 11.5t39 -11.5t12 -37.5t-12 -37.5t-39 -11.5t-39 11.5t-12 37.5z" />
    <glyph glyph-name="agrave" unicode="&#xe0;" horiz-adv-x="530" 
d="M382 196q-56 22 -130 22q-69 0 -99 -19.5t-30 -66.5q0 -45 29 -65.5t92 -20.5q72 0 105 25.5t33 80.5v44zM393 50q-44 -62 -164 -62q-96 0 -140.5 34.5t-44.5 108.5t46.5 108t149.5 34q80 0 142 -21v67q0 63 -33.5 89.5t-111.5 26.5q-75 0 -150 -24v64q38 11 77 17t82 6
q113 0 163 -43.5t50 -141.5v-245q0 -6 1.5 -9t6.5 -5l30 -13l-8 -41h-83q-5 0 -6.5 1t-2.5 7zM110 704h87l121 -140h-74z" />
    <glyph glyph-name="aacute" unicode="&#xe1;" horiz-adv-x="530" 
d="M382 196q-56 22 -130 22q-69 0 -99 -19.5t-30 -66.5q0 -45 29 -65.5t92 -20.5q72 0 105 25.5t33 80.5v44zM393 50q-44 -62 -164 -62q-96 0 -140.5 34.5t-44.5 108.5t46.5 108t149.5 34q80 0 142 -21v67q0 63 -33.5 89.5t-111.5 26.5q-75 0 -150 -24v64q38 11 77 17t82 6
q113 0 163 -43.5t50 -141.5v-245q0 -6 1.5 -9t6.5 -5l30 -13l-8 -41h-83q-5 0 -6.5 1t-2.5 7zM286 564h-74l121 140h87z" />
    <glyph glyph-name="acircumflex" unicode="&#xe2;" horiz-adv-x="530" 
d="M382 196q-56 22 -130 22q-69 0 -99 -19.5t-30 -66.5q0 -45 29 -65.5t92 -20.5q72 0 105 25.5t33 80.5v44zM393 50q-44 -62 -164 -62q-96 0 -140.5 34.5t-44.5 108.5t46.5 108t149.5 34q80 0 142 -21v67q0 63 -33.5 89.5t-111.5 26.5q-75 0 -150 -24v64q38 11 77 17t82 6
q113 0 163 -43.5t50 -141.5v-245q0 -6 1.5 -9t6.5 -5l30 -13l-8 -41h-83q-5 0 -6.5 1t-2.5 7zM225 704h80l123 -140h-73l-90 95l-90 -95h-73z" />
    <glyph glyph-name="atilde" unicode="&#xe3;" horiz-adv-x="530" 
d="M382 196q-56 22 -130 22q-69 0 -99 -19.5t-30 -66.5q0 -45 29 -65.5t92 -20.5q72 0 105 25.5t33 80.5v44zM393 50q-44 -62 -164 -62q-96 0 -140.5 34.5t-44.5 108.5t46.5 108t149.5 34q80 0 142 -21v67q0 63 -33.5 89.5t-111.5 26.5q-75 0 -150 -24v64q38 11 77 17t82 6
q113 0 163 -43.5t50 -141.5v-245q0 -6 1.5 -9t6.5 -5l30 -13l-8 -41h-83q-5 0 -6.5 1t-2.5 7zM110 585q0 54 21 78t67 24q21 0 38 -8t31 -17.5t27 -17.5t27 -8q23 0 32 11.5t9 39.5v7h58v-11q0 -54 -21 -78t-67 -24q-21 0 -38 8t-31 17.5t-27.5 17.5t-26.5 8
q-23 0 -32 -11.5t-9 -39.5v-6h-58v10z" />
    <glyph glyph-name="adieresis" unicode="&#xe4;" horiz-adv-x="530" 
d="M382 196q-56 22 -130 22q-69 0 -99 -19.5t-30 -66.5q0 -45 29 -65.5t92 -20.5q72 0 105 25.5t33 80.5v44zM393 50q-44 -62 -164 -62q-96 0 -140.5 34.5t-44.5 108.5t46.5 108t149.5 34q80 0 142 -21v67q0 63 -33.5 89.5t-111.5 26.5q-75 0 -150 -24v64q38 11 77 17t82 6
q113 0 163 -43.5t50 -141.5v-245q0 -6 1.5 -9t6.5 -5l30 -13l-8 -41h-83q-5 0 -6.5 1t-2.5 7zM314 634q0 26 12 37.5t39 11.5q50 0 50 -49t-50 -49q-27 0 -39 11.5t-12 37.5zM115 634q0 49 50 49q27 0 39 -11.5t12 -37.5t-12 -37.5t-39 -11.5q-50 0 -50 49z" />
    <glyph glyph-name="amacron" unicode="&#x101;" horiz-adv-x="530" 
d="M382 196q-56 22 -130 22q-69 0 -99 -19.5t-30 -66.5q0 -45 29 -65.5t92 -20.5q72 0 105 25.5t33 80.5v44zM393 50q-44 -62 -164 -62q-96 0 -140.5 34.5t-44.5 108.5t46.5 108t149.5 34q80 0 142 -21v67q0 63 -33.5 89.5t-111.5 26.5q-75 0 -150 -24v64q38 11 77 17t82 6
q113 0 163 -43.5t50 -141.5v-245q0 -6 1.5 -9t6.5 -5l30 -13l-8 -41h-83q-5 0 -6.5 1t-2.5 7zM114 663h302v-57h-302v57z" />
    <glyph glyph-name="abreve" unicode="&#x103;" horiz-adv-x="530" 
d="M382 196q-56 22 -130 22q-69 0 -99 -19.5t-30 -66.5q0 -45 29 -65.5t92 -20.5q72 0 105 25.5t33 80.5v44zM393 50q-44 -62 -164 -62q-96 0 -140.5 34.5t-44.5 108.5t46.5 108t149.5 34q80 0 142 -21v67q0 63 -33.5 89.5t-111.5 26.5q-75 0 -150 -24v64q38 11 77 17t82 6
q113 0 163 -43.5t50 -141.5v-245q0 -6 1.5 -9t6.5 -5l30 -13l-8 -41h-83q-5 0 -6.5 1t-2.5 7zM171 704q0 -51 21.5 -72.5t72.5 -21.5t72.5 21.5t21.5 72.5h58q0 -79 -36 -114t-116 -35t-116 35t-36 114h58z" />
    <glyph glyph-name="acaron" unicode="&#x1ce;" horiz-adv-x="530" 
d="M382 196q-56 22 -130 22q-69 0 -99 -19.5t-30 -66.5q0 -45 29 -65.5t92 -20.5q72 0 105 25.5t33 80.5v44zM393 50q-44 -62 -164 -62q-96 0 -140.5 34.5t-44.5 108.5t46.5 108t149.5 34q80 0 142 -21v67q0 63 -33.5 89.5t-111.5 26.5q-75 0 -150 -24v64q38 11 77 17t82 6
q113 0 163 -43.5t50 -141.5v-245q0 -6 1.5 -9t6.5 -5l30 -13l-8 -41h-83q-5 0 -6.5 1t-2.5 7zM305 564h-80l-123 140h73l90 -95l90 95h73z" />
    <glyph glyph-name="aring" unicode="&#xe5;" horiz-adv-x="530" 
d="M382 196q-56 22 -130 22q-69 0 -99 -19.5t-30 -66.5q0 -45 29 -65.5t92 -20.5q72 0 105 25.5t33 80.5v44zM393 50q-44 -62 -164 -62q-96 0 -140.5 34.5t-44.5 108.5t46.5 108t149.5 34q80 0 142 -21v67q0 63 -33.5 89.5t-111.5 26.5q-75 0 -150 -24v64q38 11 77 17t82 6
q113 0 163 -43.5t50 -141.5v-245q0 -6 1.5 -9t6.5 -5l30 -13l-8 -41h-83q-5 0 -6.5 1t-2.5 7zM162 634q0 50 24.5 72t78.5 22t78.5 -22t24.5 -72q0 -49 -24.5 -71.5t-78.5 -22.5t-78.5 22.5t-24.5 71.5zM209 634q0 -30 13 -43t43 -13t43 12.5t13 43.5q0 30 -13 43.5
t-43 13.5t-43 -13.5t-13 -43.5z" />
    <glyph glyph-name="aringacute" unicode="&#x1fb;" horiz-adv-x="530" 
d="M382 196q-56 22 -130 22q-69 0 -99 -19.5t-30 -66.5q0 -45 29 -65.5t92 -20.5q72 0 105 25.5t33 80.5v44zM393 50q-44 -62 -164 -62q-96 0 -140.5 34.5t-44.5 108.5t46.5 108t149.5 34q80 0 142 -21v67q0 63 -33.5 89.5t-111.5 26.5q-75 0 -150 -24v64q38 11 77 17t82 6
q113 0 163 -43.5t50 -141.5v-245q0 -6 1.5 -9t6.5 -5l30 -13l-8 -41h-83q-5 0 -6.5 1t-2.5 7zM306 722q56 -16 56 -88q0 -49 -24.5 -71.5t-78.5 -22.5t-78.5 22.5t-24.5 71.5q0 43 18.5 65t59.5 27l93 106h87zM203 634q0 -30 13 -43t43 -13t43 12.5t13 43.5q0 30 -13 43.5
t-43 13.5t-43 -13.5t-13 -43.5z" />
    <glyph glyph-name="aogonek" unicode="&#x105;" horiz-adv-x="530" 
d="M44 131q0 74 46.5 108t149.5 34q80 0 142 -21v67q0 63 -33.5 89.5t-111.5 26.5q-75 0 -150 -24v64q38 11 77 17t82 6q113 0 163 -43.5t50 -141.5v-250q0 -6 8 -9l30 -13l-8 -41h-30q-27 -25 -46 -44.5t-31 -35t-17 -29t-5 -25.5q0 -25 14.5 -36t47.5 -11q11 0 20.5 1
t16.5 3v-49q-11 -3 -24.5 -4t-30.5 -1q-57 0 -82.5 20t-25.5 65q0 35 24.5 70.5t77.5 81.5l-5 44q-44 -62 -164 -62q-96 0 -140.5 34.5t-44.5 108.5zM123 132q0 -45 29 -65.5t92 -20.5q72 0 105 25.5t33 80.5v44q-56 22 -130 22q-69 0 -99 -19.5t-30 -66.5z" />
    <glyph glyph-name="ae" unicode="&#xe6;" horiz-adv-x="860" 
d="M44 131q0 74 46.5 107.5t149.5 33.5q80 0 142 -21v68q0 63 -33.5 89.5t-111.5 26.5q-75 0 -150 -24v64q38 11 77 17t82 6q75 0 119 -21.5t61 -69.5q45 91 184 91q111 0 160.5 -58.5t49.5 -188.5q0 -8 -0.5 -16t-0.5 -15h-362q2 -90 46 -129.5t142 -39.5q78 0 156 24v-64
q-38 -12 -77.5 -17.5t-84.5 -5.5q-84 0 -138 22.5t-83 72.5q-37 -95 -186 -95q-97 0 -142.5 34.5t-45.5 108.5zM610 440q-78 0 -114 -38t-39 -127h285q-2 88 -32 126.5t-100 38.5zM123 132q0 -45 29.5 -65.5t93.5 -20.5q72 0 104 25.5t32 80.5v44q-56 22 -130 22
q-69 0 -99 -19.5t-30 -66.5z" />
    <glyph glyph-name="aeacute" unicode="&#x1fd;" horiz-adv-x="860" 
d="M44 131q0 74 46.5 107.5t149.5 33.5q80 0 142 -21v68q0 63 -33.5 89.5t-111.5 26.5q-75 0 -150 -24v64q38 11 77 17t82 6q75 0 119 -21.5t61 -69.5q45 91 184 91q111 0 160.5 -58.5t49.5 -188.5q0 -8 -0.5 -16t-0.5 -15h-362q2 -90 46 -129.5t142 -39.5q78 0 156 24v-64
q-38 -12 -77.5 -17.5t-84.5 -5.5q-84 0 -138 22.5t-83 72.5q-37 -95 -186 -95q-97 0 -142.5 34.5t-45.5 108.5zM610 440q-78 0 -114 -38t-39 -127h285q-2 88 -32 126.5t-100 38.5zM123 132q0 -45 29.5 -65.5t93.5 -20.5q72 0 104 25.5t32 80.5v44q-56 22 -130 22
q-69 0 -99 -19.5t-30 -66.5zM453 564h-74l121 140h87z" />
    <glyph glyph-name="cacute" unicode="&#x107;" horiz-adv-x="463" 
d="M42 243q0 134 57 194.5t183 60.5q54 0 90.5 -6.5t56.5 -14.5l-13 -62q-21 8 -51 13.5t-72 5.5q-90 0 -129.5 -44.5t-39.5 -146.5t39.5 -146.5t129.5 -44.5q68 0 131 20v-65q-61 -19 -142 -19q-126 0 -183 60t-57 195zM289 564h-74l121 140h87z" />
    <glyph glyph-name="ccedilla" unicode="&#xe7;" horiz-adv-x="463" 
d="M240 -10q-104 9 -151 69.5t-47 183.5q0 134 57 194.5t183 60.5q81 0 142 -19v-65q-63 20 -131 20q-90 0 -129.5 -44.5t-39.5 -146.5t39.5 -146.5t129.5 -44.5q68 0 131 20v-65q-55 -17 -128 -19v-48q42 -3 61.5 -22.5t19.5 -59.5q0 -48 -29.5 -68.5t-94.5 -20.5
q-23 0 -44 2.5t-41 7.5v48q20 -5 37.5 -8.5t37.5 -3.5q38 0 54 10t16 35q0 24 -14.5 34t-50.5 10h-8v86z" />
    <glyph glyph-name="ccircumflex" unicode="&#x109;" horiz-adv-x="463" 
d="M42 243q0 134 57 194.5t183 60.5q54 0 90.5 -6.5t56.5 -14.5l-13 -62q-21 8 -51 13.5t-72 5.5q-90 0 -129.5 -44.5t-39.5 -146.5t39.5 -146.5t129.5 -44.5q68 0 131 20v-65q-61 -19 -142 -19q-126 0 -183 60t-57 195zM228 704h80l123 -140h-73l-90 95l-90 -95h-73z" />
    <glyph glyph-name="ccaron" unicode="&#x10d;" horiz-adv-x="463" 
d="M42 243q0 134 57 194.5t183 60.5q54 0 90.5 -6.5t56.5 -14.5l-13 -62q-21 8 -51 13.5t-72 5.5q-90 0 -129.5 -44.5t-39.5 -146.5t39.5 -146.5t129.5 -44.5q68 0 131 20v-65q-61 -19 -142 -19q-126 0 -183 60t-57 195zM308 564h-80l-123 140h73l90 -95l90 95h73z" />
    <glyph glyph-name="cdotaccent" unicode="&#x10b;" horiz-adv-x="463" 
d="M42 243q0 134 57 194.5t183 60.5q54 0 90.5 -6.5t56.5 -14.5l-13 -62q-21 8 -51 13.5t-72 5.5q-90 0 -129.5 -44.5t-39.5 -146.5t39.5 -146.5t129.5 -44.5q68 0 131 20v-65q-61 -19 -142 -19q-126 0 -183 60t-57 195zM217 634q0 26 12 37.5t39 11.5t39 -11.5t12 -37.5
t-12 -37.5t-39 -11.5t-39 11.5t-12 37.5z" />
    <glyph glyph-name="dcaron" unicode="&#x10f;" horiz-adv-x="678" 
d="M273 434q-80 0 -114.5 -44.5t-34.5 -146.5t34.5 -146.5t114.5 -44.5q49 0 83.5 13.5t58.5 32.5v197q0 75 -33 107t-109 32zM426 56q-25 -32 -67 -50t-105 -18q-112 0 -162 60t-50 195t50 195t162 60q59 0 97.5 -15t63.5 -47v268h80v-636q0 -6 1.5 -9t6.5 -5l30 -13
l-8 -41h-85q-5 0 -6.5 1t-2.5 7zM613 554h-56l50 188h71z" />
    <glyph glyph-name="dcroat" unicode="&#x111;" horiz-adv-x="580" 
d="M270 52q49 0 85 13.5t60 32.5v171q0 88 -33.5 126.5t-111.5 38.5t-112 -44.5t-34 -146.5t34 -146.5t112 -44.5zM251 -12q-110 0 -159.5 60t-49.5 195t49.5 195t159.5 60q121 0 164 -82v153h-178v56h178v79h80v-79h65v-56h-65v-501q0 -6 1.5 -9t6.5 -5l30 -13l-8 -41h-85
q-5 0 -6.5 1t-2.5 7l-5 48q-25 -32 -68.5 -50t-106.5 -18z" />
    <glyph glyph-name="eth" unicode="&#xf0;" horiz-adv-x="567" 
d="M359 657q80 -51 118 -148t38 -246q0 -144 -57.5 -209.5t-181.5 -65.5q-122 0 -177 59t-55 190q0 132 53 190.5t169 58.5q110 0 154 -66q-12 63 -37.5 109t-68.5 75l-52 -61h-72l74 87q-54 22 -132 25v61q52 -2 96 -9.5t81 -23.5l37 43h72zM126 237q0 -101 35 -144.5
t115 -43.5q83 0 120 44.5t37 146.5q0 96 -35.5 140.5t-115.5 44.5q-83 0 -119.5 -43.5t-36.5 -144.5z" />
    <glyph glyph-name="egrave" unicode="&#xe8;" horiz-adv-x="523" 
d="M42 243q0 67 13.5 115.5t41.5 79.5t71.5 45.5t104.5 14.5q111 0 160.5 -58.5t49.5 -188.5v-16t-1 -15h-361q3 -91 46.5 -130t141.5 -39q77 0 155 24v-64q-37 -12 -76.5 -17.5t-84.5 -5.5q-137 0 -199 60t-62 195zM273 440q-78 0 -114 -38.5t-38 -126.5h285
q-2 88 -32.5 126.5t-100.5 38.5zM116 704h87l121 -140h-74z" />
    <glyph glyph-name="eacute" unicode="&#xe9;" horiz-adv-x="523" 
d="M42 243q0 67 13.5 115.5t41.5 79.5t71.5 45.5t104.5 14.5q111 0 160.5 -58.5t49.5 -188.5v-16t-1 -15h-361q3 -91 46.5 -130t141.5 -39q77 0 155 24v-64q-37 -12 -76.5 -17.5t-84.5 -5.5q-137 0 -199 60t-62 195zM273 440q-78 0 -114 -38.5t-38 -126.5h285
q-2 88 -32.5 126.5t-100.5 38.5zM292 564h-74l121 140h87z" />
    <glyph glyph-name="ecircumflex" unicode="&#xea;" horiz-adv-x="523" 
d="M42 243q0 67 13.5 115.5t41.5 79.5t71.5 45.5t104.5 14.5q111 0 160.5 -58.5t49.5 -188.5v-16t-1 -15h-361q3 -91 46.5 -130t141.5 -39q77 0 155 24v-64q-37 -12 -76.5 -17.5t-84.5 -5.5q-137 0 -199 60t-62 195zM273 440q-78 0 -114 -38.5t-38 -126.5h285
q-2 88 -32.5 126.5t-100.5 38.5zM231 704h80l123 -140h-73l-90 95l-90 -95h-73z" />
    <glyph glyph-name="ecaron" unicode="&#x11b;" horiz-adv-x="523" 
d="M42 243q0 67 13.5 115.5t41.5 79.5t71.5 45.5t104.5 14.5q111 0 160.5 -58.5t49.5 -188.5v-16t-1 -15h-361q3 -91 46.5 -130t141.5 -39q77 0 155 24v-64q-37 -12 -76.5 -17.5t-84.5 -5.5q-137 0 -199 60t-62 195zM273 440q-78 0 -114 -38.5t-38 -126.5h285
q-2 88 -32.5 126.5t-100.5 38.5zM311 564h-80l-123 140h73l90 -95l90 95h73z" />
    <glyph glyph-name="edieresis" unicode="&#xeb;" horiz-adv-x="523" 
d="M42 243q0 67 13.5 115.5t41.5 79.5t71.5 45.5t104.5 14.5q111 0 160.5 -58.5t49.5 -188.5v-16t-1 -15h-361q3 -91 46.5 -130t141.5 -39q77 0 155 24v-64q-37 -12 -76.5 -17.5t-84.5 -5.5q-137 0 -199 60t-62 195zM273 440q-78 0 -114 -38.5t-38 -126.5h285
q-2 88 -32.5 126.5t-100.5 38.5zM320 634q0 26 12 37.5t39 11.5q50 0 50 -49t-50 -49q-27 0 -39 11.5t-12 37.5zM121 634q0 49 50 49q27 0 39 -11.5t12 -37.5t-12 -37.5t-39 -11.5q-50 0 -50 49z" />
    <glyph glyph-name="emacron" unicode="&#x113;" horiz-adv-x="523" 
d="M42 243q0 67 13.5 115.5t41.5 79.5t71.5 45.5t104.5 14.5q111 0 160.5 -58.5t49.5 -188.5v-16t-1 -15h-361q3 -91 46.5 -130t141.5 -39q77 0 155 24v-64q-37 -12 -76.5 -17.5t-84.5 -5.5q-137 0 -199 60t-62 195zM273 440q-78 0 -114 -38.5t-38 -126.5h285
q-2 88 -32.5 126.5t-100.5 38.5zM120 663h302v-57h-302v57z" />
    <glyph glyph-name="ebreve" unicode="&#x115;" horiz-adv-x="523" 
d="M42 243q0 67 13.5 115.5t41.5 79.5t71.5 45.5t104.5 14.5q111 0 160.5 -58.5t49.5 -188.5v-16t-1 -15h-361q3 -91 46.5 -130t141.5 -39q77 0 155 24v-64q-37 -12 -76.5 -17.5t-84.5 -5.5q-137 0 -199 60t-62 195zM273 440q-78 0 -114 -38.5t-38 -126.5h285
q-2 88 -32.5 126.5t-100.5 38.5zM177 704q0 -51 21.5 -72.5t72.5 -21.5t72.5 21.5t21.5 72.5h58q0 -79 -36 -114t-116 -35t-116 35t-36 114h58z" />
    <glyph glyph-name="edotaccent" unicode="&#x117;" horiz-adv-x="523" 
d="M42 243q0 67 13.5 115.5t41.5 79.5t71.5 45.5t104.5 14.5q111 0 160.5 -58.5t49.5 -188.5v-16t-1 -15h-361q3 -91 46.5 -130t141.5 -39q77 0 155 24v-64q-37 -12 -76.5 -17.5t-84.5 -5.5q-137 0 -199 60t-62 195zM273 440q-78 0 -114 -38.5t-38 -126.5h285
q-2 88 -32.5 126.5t-100.5 38.5zM220 634q0 26 12 37.5t39 11.5t39 -11.5t12 -37.5t-12 -37.5t-39 -11.5t-39 11.5t-12 37.5z" />
    <glyph glyph-name="eogonek" unicode="&#x119;" horiz-adv-x="523" 
d="M42 243q0 67 13.5 115.5t41.5 79.5t71.5 45.5t104.5 14.5q111 0 160.5 -58.5t49.5 -188.5v-16t-1 -15h-361q3 -91 46.5 -130t141.5 -39q77 0 155 24v-64q-55 -52 -77 -85t-22 -59q0 -25 14.5 -36.5t47.5 -11.5q11 0 20.5 1t16.5 3v-49q-11 -3 -24.5 -4t-29.5 -1
q-57 0 -83 20.5t-26 64.5q0 60 79 139q-19 -2 -38 -3.5t-39 -1.5q-137 0 -199 60t-62 195zM273 440q-78 0 -114 -38.5t-38 -126.5h285q-2 88 -32.5 126.5t-100.5 38.5z" />
    <glyph glyph-name="gcircumflex" unicode="&#x11d;" horiz-adv-x="563" 
d="M495 486v-507q0 -60 -17 -98.5t-46 -61t-67.5 -31t-81.5 -8.5q-32 0 -61 2.5t-45 5.5v64q26 -4 53 -6t49 -2q136 0 136 121v85q-24 -32 -63 -47t-98 -15q-112 0 -162 60t-50 195t50 195t162 60q51 0 95.5 -13.5t78.5 -39.5l4 41h63zM415 398q-24 14 -63 25t-79 11
q-80 0 -114.5 -44.5t-34.5 -146.5t34.5 -146.5t114.5 -44.5q76 0 109 32t33 107v207zM242 704h80l123 -140h-73l-90 95l-90 -95h-73z" />
    <glyph glyph-name="gbreve" unicode="&#x11f;" horiz-adv-x="563" 
d="M495 486v-507q0 -60 -17 -98.5t-46 -61t-67.5 -31t-81.5 -8.5q-32 0 -61 2.5t-45 5.5v64q26 -4 53 -6t49 -2q136 0 136 121v85q-24 -32 -63 -47t-98 -15q-112 0 -162 60t-50 195t50 195t162 60q51 0 95.5 -13.5t78.5 -39.5l4 41h63zM415 398q-24 14 -63 25t-79 11
q-80 0 -114.5 -44.5t-34.5 -146.5t34.5 -146.5t114.5 -44.5q76 0 109 32t33 107v207zM188 704q0 -51 21.5 -72.5t72.5 -21.5t72.5 21.5t21.5 72.5h58q0 -79 -36 -114t-116 -35t-116 35t-36 114h58z" />
    <glyph glyph-name="gdotaccent" unicode="&#x121;" horiz-adv-x="563" 
d="M495 486v-507q0 -60 -17 -98.5t-46 -61t-67.5 -31t-81.5 -8.5q-32 0 -61 2.5t-45 5.5v64q26 -4 53 -6t49 -2q136 0 136 121v85q-24 -32 -63 -47t-98 -15q-112 0 -162 60t-50 195t50 195t162 60q51 0 95.5 -13.5t78.5 -39.5l4 41h63zM415 398q-24 14 -63 25t-79 11
q-80 0 -114.5 -44.5t-34.5 -146.5t34.5 -146.5t114.5 -44.5q76 0 109 32t33 107v207zM231 634q0 26 12 37.5t39 11.5t39 -11.5t12 -37.5t-12 -37.5t-39 -11.5t-39 11.5t-12 37.5z" />
    <glyph glyph-name="gcommaaccent" unicode="&#x123;" horiz-adv-x="563" 
d="M495 486v-507q0 -60 -17 -98.5t-46 -61t-67.5 -31t-81.5 -8.5q-32 0 -61 2.5t-45 5.5v64q26 -4 53 -6t49 -2q136 0 136 121v85q-24 -32 -63 -47t-98 -15q-112 0 -162 60t-50 195t50 195t162 60q51 0 95.5 -13.5t78.5 -39.5l4 41h63zM415 398q-24 14 -63 25t-79 11
q-80 0 -114.5 -44.5t-34.5 -146.5t34.5 -146.5t114.5 -44.5q76 0 109 32t33 107v207zM294 742h56l-50 -188h-71z" />
    <glyph glyph-name="hcircumflex" unicode="&#x125;" horiz-adv-x="564" 
d="M68 880h79l123 -134h-71l-91 92l-92 -92h-71zM306 498q101 0 144.5 -45t43.5 -148v-237q0 -6 1.5 -9t6.5 -5l30 -13l-8 -41h-101q-9 0 -9 10v293q0 71 -28 100t-94 29q-24 0 -46.5 -3.5t-41.5 -9t-33.5 -11.5t-22.5 -12v-396h-80v636q0 6 -1.5 9t-6.5 5l-30 13l8 41h101
q9 0 9 -10v-252q26 24 65 40t93 16z" />
    <glyph glyph-name="hbar" unicode="&#x127;" horiz-adv-x="568" 
d="M152 442q26 24 65 40t93 16q101 0 144.5 -45t43.5 -148v-237q0 -6 1.5 -9t6.5 -5l30 -13l-8 -41h-101q-9 0 -9 10v293q0 71 -28 100t-94 29q-24 0 -46.5 -3.5t-41.5 -9t-33.5 -11.5t-22.5 -12v-396h-80v569h-66v56h66v79h80v-79h177v-56h-177v-127z" />
    <glyph glyph-name="dotlessi" unicode="&#x131;" horiz-adv-x="230" 
d="M49 486h101q9 0 9 -10v-476h-80v418q0 6 -1.5 9t-6.5 5l-30 13z" />
    <glyph glyph-name="igrave" unicode="&#xec;" horiz-adv-x="230" 
d="M49 486h101q9 0 9 -10v-476h-80v418q0 6 -1.5 9t-6.5 5l-30 13zM-36 704h87l121 -140h-74z" />
    <glyph glyph-name="iacute" unicode="&#xed;" horiz-adv-x="230" 
d="M49 486h101q9 0 9 -10v-476h-80v418q0 6 -1.5 9t-6.5 5l-30 13zM140 564h-74l121 140h87z" />
    <glyph glyph-name="icircumflex" unicode="&#xee;" horiz-adv-x="230" 
d="M49 486h101q9 0 9 -10v-476h-80v418q0 6 -1.5 9t-6.5 5l-30 13zM79 704h80l123 -140h-73l-90 95l-90 -95h-73z" />
    <glyph glyph-name="itilde" unicode="&#x129;" horiz-adv-x="230" 
d="M49 486h101q9 0 9 -10v-476h-80v418q0 6 -1.5 9t-6.5 5l-30 13zM-36 585q0 54 21 78t67 24q21 0 38 -8t31 -17.5t27 -17.5t27 -8q23 0 32 11.5t9 39.5v7h58v-11q0 -54 -21 -78t-67 -24q-21 0 -38 8t-31 17.5t-27.5 17.5t-26.5 8q-23 0 -32 -11.5t-9 -39.5v-6h-58v10z" />
    <glyph glyph-name="idieresis" unicode="&#xef;" horiz-adv-x="230" 
d="M49 486h101q9 0 9 -10v-476h-80v418q0 6 -1.5 9t-6.5 5l-30 13zM158 634q0 26 12 37.5t39 11.5q50 0 50 -49t-50 -49q-27 0 -39 11.5t-12 37.5zM-41 634q0 49 50 49q27 0 39 -11.5t12 -37.5t-12 -37.5t-39 -11.5q-50 0 -50 49z" />
    <glyph glyph-name="imacron" unicode="&#x12b;" horiz-adv-x="230" 
d="M49 486h101q9 0 9 -10v-476h-80v418q0 6 -1.5 9t-6.5 5l-30 13zM-32 663h302v-57h-302v57z" />
    <glyph glyph-name="ibreve" unicode="&#x12d;" horiz-adv-x="230" 
d="M49 486h101q9 0 9 -10v-476h-80v418q0 6 -1.5 9t-6.5 5l-30 13zM25 704q0 -51 21.5 -72.5t72.5 -21.5t72.5 21.5t21.5 72.5h58q0 -79 -36 -114t-116 -35t-116 35t-36 114h58z" />
    <glyph glyph-name="iogonek" unicode="&#x12f;" horiz-adv-x="230" 
d="M49 486h101q9 0 9 -10v-476q-27 -25 -46 -44.5t-31 -35t-17 -29t-5 -25.5q0 -25 14.5 -36t47.5 -11q11 0 20.5 1t16.5 3v-49q-11 -3 -24.5 -4t-30.5 -1q-57 0 -82.5 20t-25.5 65q0 34 22.5 68t71.5 78h-11v418q0 6 -1.5 9t-6.5 5l-30 13zM67 634q0 27 12 39t40 12
q27 0 39.5 -12t12.5 -39q0 -50 -52 -50q-28 0 -40 12t-12 38z" />
    <glyph glyph-name="ij" unicode="&#x133;" horiz-adv-x="460" 
d="M49 486h101q9 0 9 -10v-476h-80v418q0 6 -1.5 9t-6.5 5l-30 13zM65 634q0 27 12 39t40 12q27 0 39.5 -12t12.5 -39q0 -50 -52 -50q-28 0 -40 12t-12 38zM389 -54q0 -75 -35 -119t-117 -44h-22t-23 2v62q9 -1 17 -1h13q52 0 69.5 25t17.5 75v472q0 6 -1.5 9t-6.5 5l-30 13
l8 41h101q9 0 9 -10v-530zM295 634q0 27 12 39t40 12q27 0 39.5 -12t12.5 -39q0 -50 -52 -50q-28 0 -40 12t-12 38z" />
    <glyph glyph-name="jcircumflex" unicode="&#x135;" horiz-adv-x="230" 
d="M159 -54q0 -75 -35 -119t-117 -44h-22t-23 2v62q9 -1 17 -1h13q52 0 69.5 25t17.5 75v472q0 6 -1.5 9t-6.5 5l-30 13l8 41h101q9 0 9 -10v-530zM79 704h80l123 -140h-73l-90 95l-90 -95h-73z" />
    <glyph glyph-name="kcommaaccent" unicode="&#x137;" horiz-adv-x="477" 
d="M148 261l212 225h93l-202 -216l206 -270h-91l-165 220l-53 -53v-167h-80v636q0 6 -1.5 9t-6.5 5l-30 13l8 41h101q9 0 9 -10v-433zM224 -256h-56l50 188h71z" />
    <glyph glyph-name="kgreenlandic" unicode="&#x138;" horiz-adv-x="483" 
d="M74 418q0 6 -1.5 9t-6.5 5l-30 13l8 41h98q9 0 9 -10v-216l215 226h93l-211 -224l215 -262h-91l-174 211l-47 -47v-164h-77v418z" />
    <glyph glyph-name="lacute" unicode="&#x13a;" horiz-adv-x="231" 
d="M133 746h-73l122 134h87zM152 68q0 -6 1.5 -9t6.5 -5l30 -13l-8 -41h-101q-9 0 -9 10v626q0 6 -1.5 9t-6.5 5l-30 13l8 41h101q9 0 9 -10v-626z" />
    <glyph glyph-name="lcaron" unicode="&#x13e;" horiz-adv-x="337" 
d="M152 68q0 -6 1.5 -9t6.5 -5l30 -13l-8 -41h-101q-9 0 -9 10v626q0 6 -1.5 9t-6.5 5l-30 13l8 41h101q9 0 9 -10v-626zM272 554h-56l50 188h71z" />
    <glyph glyph-name="lcommaaccent" unicode="&#x13c;" horiz-adv-x="231" 
d="M152 68q0 -6 1.5 -9t6.5 -5l30 -13l-8 -41h-101q-9 0 -9 10v626q0 6 -1.5 9t-6.5 5l-30 13l8 41h101q9 0 9 -10v-626zM102 -256h-56l50 188h71z" />
    <glyph glyph-name="lslash" unicode="&#x142;" horiz-adv-x="305" 
d="M193 410l97 49v-64l-97 -49v-278q0 -6 1.5 -9t6.5 -5l30 -13l-8 -41h-101q-9 0 -9 10v296l-98 -49v64l98 49v266q0 6 -1.5 9t-6.5 5l-30 13l8 41h101q9 0 9 -10v-284z" />
    <glyph glyph-name="ldot" unicode="&#x140;" horiz-adv-x="322" 
d="M223 358q0 25 11 35.5t37 10.5q25 0 36 -10.5t11 -35.5t-11 -35.5t-36 -10.5q-26 0 -37 10.5t-11 35.5zM152 68q0 -6 1.5 -9t6.5 -5l30 -13l-8 -41h-101q-9 0 -9 10v626q0 6 -1.5 9t-6.5 5l-30 13l8 41h101q9 0 9 -10v-626z" />
    <glyph glyph-name="nacute" unicode="&#x144;" horiz-adv-x="570" 
d="M500 68q0 -6 1.5 -9t6.5 -5l30 -13l-8 -41h-101q-9 0 -9 10v293q0 71 -28 100t-94 29q-24 0 -46.5 -3.5t-41.5 -9t-33.5 -11.5t-22.5 -12v-396h-80v418q0 6 -1.5 9t-6.5 5l-30 13l8 41h101q9 0 9 -10v-34q26 24 65 40t93 16q101 0 144.5 -45t43.5 -148v-237zM309 564h-74
l121 140h87z" />
    <glyph glyph-name="ncaron" unicode="&#x148;" horiz-adv-x="570" 
d="M500 68q0 -6 1.5 -9t6.5 -5l30 -13l-8 -41h-101q-9 0 -9 10v293q0 71 -28 100t-94 29q-24 0 -46.5 -3.5t-41.5 -9t-33.5 -11.5t-22.5 -12v-396h-80v418q0 6 -1.5 9t-6.5 5l-30 13l8 41h101q9 0 9 -10v-34q26 24 65 40t93 16q101 0 144.5 -45t43.5 -148v-237zM328 564h-80
l-123 140h73l90 -95l90 95h73z" />
    <glyph glyph-name="ntilde" unicode="&#xf1;" horiz-adv-x="570" 
d="M500 68q0 -6 1.5 -9t6.5 -5l30 -13l-8 -41h-101q-9 0 -9 10v293q0 71 -28 100t-94 29q-24 0 -46.5 -3.5t-41.5 -9t-33.5 -11.5t-22.5 -12v-396h-80v418q0 6 -1.5 9t-6.5 5l-30 13l8 41h101q9 0 9 -10v-34q26 24 65 40t93 16q101 0 144.5 -45t43.5 -148v-237zM133 585
q0 54 21 78t67 24q21 0 38 -8t31 -17.5t27 -17.5t27 -8q23 0 32 11.5t9 39.5v7h58v-11q0 -54 -21 -78t-67 -24q-21 0 -38 8t-31 17.5t-27.5 17.5t-26.5 8q-23 0 -32 -11.5t-9 -39.5v-6h-58v10z" />
    <glyph glyph-name="ncommaaccent" unicode="&#x146;" horiz-adv-x="570" 
d="M500 68q0 -6 1.5 -9t6.5 -5l30 -13l-8 -41h-101q-9 0 -9 10v293q0 71 -28 100t-94 29q-24 0 -46.5 -3.5t-41.5 -9t-33.5 -11.5t-22.5 -12v-396h-80v418q0 6 -1.5 9t-6.5 5l-30 13l8 41h101q9 0 9 -10v-34q26 24 65 40t93 16q101 0 144.5 -45t43.5 -148v-237zM276 -256
h-56l50 188h71z" />
    <glyph glyph-name="napostrophe" unicode="&#x149;" horiz-adv-x="684" 
d="M614 68q0 -6 1.5 -9t6.5 -5l30 -13l-8 -41h-101q-9 0 -9 10v293q0 71 -28 100t-94 29q-24 0 -46.5 -3.5t-41.5 -9t-33.5 -11.5t-22.5 -12v-396h-80v418q0 6 -1.5 9t-6.5 5l-30 13l8 41h101q9 0 9 -10v-34q26 24 65 40t93 16q101 0 144.5 -45t43.5 -148v-237zM92 484h-56
l50 188h71z" />
    <glyph glyph-name="eng" unicode="&#x14b;" horiz-adv-x="571" 
d="M154 442q26 24 65 40t93 16q101 0 144.5 -45t43.5 -148v-367q0 -84 -38.5 -121t-124.5 -37q-45 0 -84 9v64q17 -4 35 -6.5t37 -2.5q51 0 73 22.5t22 74.5v362q0 71 -28 100t-94 29q-24 0 -46.5 -3.5t-41.5 -9t-33.5 -11.5t-22.5 -12v-396h-80v418q0 6 -1.5 9t-6.5 5
l-30 13l8 41h101q9 0 9 -10v-34z" />
    <glyph glyph-name="ograve" unicode="&#xf2;" horiz-adv-x="563" 
d="M42 243q0 134 57 194.5t183 60.5t182.5 -60.5t56.5 -194.5q0 -135 -56.5 -195t-182.5 -60t-183 60t-57 195zM124 243q0 -102 37 -146.5t121 -44.5q83 0 120 44.5t37 146.5t-37 146.5t-120 44.5q-84 0 -121 -44.5t-37 -146.5zM127 704h87l121 -140h-74z" />
    <glyph glyph-name="oacute" unicode="&#xf3;" horiz-adv-x="563" 
d="M42 243q0 134 57 194.5t183 60.5t182.5 -60.5t56.5 -194.5q0 -135 -56.5 -195t-182.5 -60t-183 60t-57 195zM124 243q0 -102 37 -146.5t121 -44.5q83 0 120 44.5t37 146.5t-37 146.5t-120 44.5q-84 0 -121 -44.5t-37 -146.5zM303 564h-74l121 140h87z" />
    <glyph glyph-name="ocircumflex" unicode="&#xf4;" horiz-adv-x="563" 
d="M42 243q0 134 57 194.5t183 60.5t182.5 -60.5t56.5 -194.5q0 -135 -56.5 -195t-182.5 -60t-183 60t-57 195zM124 243q0 -102 37 -146.5t121 -44.5q83 0 120 44.5t37 146.5t-37 146.5t-120 44.5q-84 0 -121 -44.5t-37 -146.5zM242 704h80l123 -140h-73l-90 95l-90 -95h-73
z" />
    <glyph glyph-name="otilde" unicode="&#xf5;" horiz-adv-x="563" 
d="M42 243q0 134 57 194.5t183 60.5t182.5 -60.5t56.5 -194.5q0 -135 -56.5 -195t-182.5 -60t-183 60t-57 195zM124 243q0 -102 37 -146.5t121 -44.5q83 0 120 44.5t37 146.5t-37 146.5t-120 44.5q-84 0 -121 -44.5t-37 -146.5zM127 585q0 54 21 78t67 24q21 0 38 -8
t31 -17.5t27 -17.5t27 -8q23 0 32 11.5t9 39.5v7h58v-11q0 -54 -21 -78t-67 -24q-21 0 -38 8t-31 17.5t-27.5 17.5t-26.5 8q-23 0 -32 -11.5t-9 -39.5v-6h-58v10z" />
    <glyph glyph-name="odieresis" unicode="&#xf6;" horiz-adv-x="563" 
d="M42 243q0 134 57 194.5t183 60.5t182.5 -60.5t56.5 -194.5q0 -135 -56.5 -195t-182.5 -60t-183 60t-57 195zM124 243q0 -102 37 -146.5t121 -44.5q83 0 120 44.5t37 146.5t-37 146.5t-120 44.5q-84 0 -121 -44.5t-37 -146.5zM331 634q0 26 12 37.5t39 11.5q50 0 50 -49
t-50 -49q-27 0 -39 11.5t-12 37.5zM132 634q0 49 50 49q27 0 39 -11.5t12 -37.5t-12 -37.5t-39 -11.5q-50 0 -50 49z" />
    <glyph glyph-name="omacron" unicode="&#x14d;" horiz-adv-x="563" 
d="M42 243q0 134 57 194.5t183 60.5t182.5 -60.5t56.5 -194.5q0 -135 -56.5 -195t-182.5 -60t-183 60t-57 195zM124 243q0 -102 37 -146.5t121 -44.5q83 0 120 44.5t37 146.5t-37 146.5t-120 44.5q-84 0 -121 -44.5t-37 -146.5zM131 663h302v-57h-302v57z" />
    <glyph glyph-name="obreve" unicode="&#x14f;" horiz-adv-x="563" 
d="M42 243q0 134 57 194.5t183 60.5t182.5 -60.5t56.5 -194.5q0 -135 -56.5 -195t-182.5 -60t-183 60t-57 195zM124 243q0 -102 37 -146.5t121 -44.5q83 0 120 44.5t37 146.5t-37 146.5t-120 44.5q-84 0 -121 -44.5t-37 -146.5zM188 704q0 -51 21.5 -72.5t72.5 -21.5
t72.5 21.5t21.5 72.5h58q0 -79 -36 -114t-116 -35t-116 35t-36 114h58z" />
    <glyph glyph-name="ohungarumlaut" unicode="&#x151;" horiz-adv-x="563" 
d="M42 243q0 134 57 194.5t183 60.5t182.5 -60.5t56.5 -194.5q0 -135 -56.5 -195t-182.5 -60t-183 60t-57 195zM124 243q0 -102 37 -146.5t121 -44.5q83 0 120 44.5t37 146.5t-37 146.5t-120 44.5q-84 0 -121 -44.5t-37 -146.5zM404 564h-75l121 140h87zM204 564h-75
l122 140h86z" />
    <glyph glyph-name="oslash" unicode="&#xf8;" horiz-adv-x="563" 
d="M42 243q0 134 57 194.5t183 60.5q89 0 141 -29l37 49h56l-57 -76q62 -61 62 -199q0 -135 -56.5 -195t-182.5 -60q-89 0 -142 28l-36 -48h-57l56 75q-61 60 -61 200zM115 243q0 -95 32 -142l236 315q-38 24 -101 24q-89 0 -128 -46t-39 -151zM448 243q0 95 -32 142
l-236 -316q36 -23 102 -23q88 0 127 46t39 151z" />
    <glyph glyph-name="oslashacute" unicode="&#x1ff;" horiz-adv-x="563" 
d="M42 243q0 134 57 194.5t183 60.5q89 0 141 -29l37 49h56l-57 -76q62 -61 62 -199q0 -135 -56.5 -195t-182.5 -60q-89 0 -142 28l-36 -48h-57l56 75q-61 60 -61 200zM115 243q0 -95 32 -142l236 315q-38 24 -101 24q-89 0 -128 -46t-39 -151zM448 243q0 95 -32 142
l-236 -316q36 -23 102 -23q88 0 127 46t39 151zM303 564h-74l121 140h87z" />
    <glyph glyph-name="oe" unicode="&#x153;" horiz-adv-x="922" 
d="M42 243q0 134 57 194.5t183 60.5q158 0 198 -113q21 59 68.5 86t123.5 27q111 0 160.5 -58.5t49.5 -188.5q0 -8 -0.5 -16t-0.5 -15h-362q3 -91 46.5 -130t141.5 -39q78 0 156 24v-64q-38 -12 -77.5 -17.5t-84.5 -5.5q-88 0 -142 28t-77 88q-17 -57 -68 -86.5t-132 -29.5
q-126 0 -183 60t-57 195zM124 243q0 -102 37 -146.5t121 -44.5q83 0 120 44.5t37 146.5t-37 146.5t-120 44.5q-84 0 -121 -44.5t-37 -146.5zM672 440q-78 0 -114.5 -38.5t-38.5 -126.5h285q-2 88 -32 126.5t-100 38.5z" />
    <glyph glyph-name="thorn" unicode="&#xfe;" horiz-adv-x="566" 
d="M524 243q0 -135 -50 -195t-161 -60q-60 0 -97.5 15t-63.5 38v-249h-80v844q0 6 -1.5 9t-6.5 5l-30 13l8 41h101q9 0 9 -10v-258q24 32 62.5 47t98.5 15q111 0 161 -60t50 -195zM442 243q0 102 -34.5 146.5t-113.5 44.5q-76 0 -109 -32t-33 -107v-197q24 -19 58.5 -32.5
t83.5 -13.5q79 0 113.5 44.5t34.5 146.5z" />
    <glyph glyph-name="racute" unicode="&#x155;" horiz-adv-x="365" 
d="M74 418q0 6 -1.5 9t-6.5 5l-30 13l8 41h101q9 0 9 -10v-49q56 71 158 71q13 0 26 -1t21 -3l-14 -70q-9 2 -20 4t-25 2q-53 0 -86.5 -15.5t-59.5 -37.5v-377h-80v418zM223 564h-74l121 140h87z" />
    <glyph glyph-name="rcaron" unicode="&#x159;" horiz-adv-x="365" 
d="M74 418q0 6 -1.5 9t-6.5 5l-30 13l8 41h101q9 0 9 -10v-49q56 71 158 71q13 0 26 -1t21 -3l-14 -70q-9 2 -20 4t-25 2q-53 0 -86.5 -15.5t-59.5 -37.5v-377h-80v418zM242 564h-80l-123 140h73l90 -95l90 95h73z" />
    <glyph glyph-name="rcommaaccent" unicode="&#x157;" horiz-adv-x="365" 
d="M74 418q0 6 -1.5 9t-6.5 5l-30 13l8 41h101q9 0 9 -10v-49q56 71 158 71q13 0 26 -1t21 -3l-14 -70q-9 2 -20 4t-25 2q-53 0 -86.5 -15.5t-59.5 -37.5v-377h-80v418zM83 -256h-56l50 188h71z" />
    <glyph glyph-name="sacute" unicode="&#x15b;" horiz-adv-x="465" 
d="M50 358q0 71 51 105.5t142 34.5q42 0 81 -5.5t76 -16.5l-13 -62q-67 22 -140 22q-62 0 -91 -19.5t-29 -57.5q0 -30 21.5 -44.5t54.5 -23t70.5 -15.5t70.5 -22.5t54.5 -42.5t21.5 -76q0 -73 -50.5 -110t-144.5 -37t-170 24v65q79 -27 164 -27q64 0 94 22t30 62
q0 33 -21.5 49t-54.5 25t-70.5 15.5t-70.5 20.5t-54.5 40t-21.5 74zM254 564h-74l121 140h87z" />
    <glyph glyph-name="scircumflex" unicode="&#x15d;" horiz-adv-x="465" 
d="M50 358q0 71 51 105.5t142 34.5q42 0 81 -5.5t76 -16.5l-13 -62q-67 22 -140 22q-62 0 -91 -19.5t-29 -57.5q0 -30 21.5 -44.5t54.5 -23t70.5 -15.5t70.5 -22.5t54.5 -42.5t21.5 -76q0 -73 -50.5 -110t-144.5 -37t-170 24v65q79 -27 164 -27q64 0 94 22t30 62
q0 33 -21.5 49t-54.5 25t-70.5 15.5t-70.5 20.5t-54.5 40t-21.5 74zM193 704h80l123 -140h-73l-90 95l-90 -95h-73z" />
    <glyph glyph-name="scaron" unicode="&#x161;" horiz-adv-x="465" 
d="M50 358q0 71 51 105.5t142 34.5q42 0 81 -5.5t76 -16.5l-13 -62q-67 22 -140 22q-62 0 -91 -19.5t-29 -57.5q0 -30 21.5 -44.5t54.5 -23t70.5 -15.5t70.5 -22.5t54.5 -42.5t21.5 -76q0 -73 -50.5 -110t-144.5 -37t-170 24v65q79 -27 164 -27q64 0 94 22t30 62
q0 33 -21.5 49t-54.5 25t-70.5 15.5t-70.5 20.5t-54.5 40t-21.5 74zM273 564h-80l-123 140h73l90 -95l90 95h73z" />
    <glyph glyph-name="scedilla" unicode="&#x15f;" horiz-adv-x="465" 
d="M200 -12q-79 3 -145 24v65q79 -27 164 -27q64 0 94 22t30 62q0 33 -21.5 49t-54.5 25t-70.5 15.5t-70.5 20.5t-54.5 40t-21.5 74q0 71 51 105.5t142 34.5q42 0 81 -5.5t76 -16.5l-13 -62q-67 22 -140 22q-62 0 -91 -19.5t-29 -57.5q0 -30 21.5 -44.5t54.5 -23t70.5 -15.5
t70.5 -22.5t54.5 -42.5t21.5 -76q0 -67 -43 -103.5t-121 -42.5v-49q42 -3 61.5 -22.5t19.5 -59.5q0 -48 -29.5 -68.5t-94.5 -20.5q-23 0 -44 2.5t-41 7.5v48q20 -5 37.5 -8.5t37.5 -3.5q38 0 54 10t16 35q0 24 -14.5 34t-50.5 10h-8v84z" />
    <glyph glyph-name="scommaaccent" unicode="&#x219;" horiz-adv-x="465" 
d="M50 358q0 71 51 105.5t142 34.5q42 0 81 -5.5t76 -16.5l-13 -62q-67 22 -140 22q-62 0 -91 -19.5t-29 -57.5q0 -30 21.5 -44.5t54.5 -23t70.5 -15.5t70.5 -22.5t54.5 -42.5t21.5 -76q0 -73 -50.5 -110t-144.5 -37t-170 24v65q79 -27 164 -27q64 0 94 22t30 62
q0 33 -21.5 49t-54.5 25t-70.5 15.5t-70.5 20.5t-54.5 40t-21.5 74zM221 -256h-56l50 188h71z" />
    <glyph glyph-name="germandbls" unicode="&#xdf;" horiz-adv-x="567" 
d="M71 493q0 117 52.5 170t170.5 53q108 0 156.5 -44t48.5 -142q0 -66 -24 -104t-73 -54q63 -14 96 -60t33 -122q0 -107 -52 -154.5t-168 -47.5q-23 0 -47.5 1.5t-47.5 5.5v66q42 -9 84 -9q82 0 117 33t35 111q0 75 -37 108t-123 33h-40v62h32q74 0 106 29t32 96
q0 69 -30.5 98.5t-100.5 29.5q-76 0 -109.5 -38.5t-33.5 -126.5v-487h-77v493z" />
    <glyph glyph-name="tcaron" unicode="&#x165;" horiz-adv-x="368" 
d="M81 411q0 8 -1 10.5t-9 4.5l-57 16l7 44h60v145h80v-145h167v-63h-167v-274q0 -52 22.5 -74.5t73.5 -22.5q18 0 36 2.5t35 6.5v-64q-38 -9 -83 -9q-86 0 -125 37t-39 121v265zM280 554h-56l50 188h71z" />
    <glyph glyph-name="tcommaaccent" unicode="&#x163;" horiz-adv-x="368" 
d="M81 411q0 8 -1 10.5t-9 4.5l-57 16l7 44h60v145h80v-145h167v-63h-167v-274q0 -52 22.5 -74.5t73.5 -22.5q18 0 36 2.5t35 6.5v-64q-38 -9 -83 -9q-86 0 -125 37t-39 121v265zM192 -256h-56l50 188h71z" />
    <glyph glyph-name="uni021B" unicode="&#x21b;" horiz-adv-x="368" 
d="M81 411q0 8 -1 10.5t-9 4.5l-57 16l7 44h60v145h80v-145h167v-63h-167v-274q0 -52 22.5 -74.5t73.5 -22.5q18 0 36 2.5t35 6.5v-64q-38 -9 -83 -9q-86 0 -125 37t-39 121v265zM192 -256h-56l50 188h71z" />
    <glyph glyph-name="tbar" unicode="&#x167;" horiz-adv-x="398" 
d="M110 411q0 8 -1 10.5t-9 4.5l-57 16l7 44h60v137l81 14v-151h166v-60h-166v-154h150v-53h-150v-74q0 -51 21.5 -73.5t72.5 -22.5q36 0 72 11v-62q-19 -5 -40 -7.5t-44 -2.5q-86 0 -124.5 37t-38.5 120v74h-92v53h92v139z" />
    <glyph glyph-name="ugrave" unicode="&#xf9;" horiz-adv-x="562" 
d="M152 191q0 -75 30.5 -107t102.5 -32q71 0 102 32t31 107v295h80v-301q0 -104 -50.5 -150.5t-162.5 -46.5q-113 0 -163 46.5t-50 150.5v235q0 5 -7 9l-31 15l7 42h102q9 0 9 -10v-285zM130 704h87l121 -140h-74z" />
    <glyph glyph-name="uacute" unicode="&#xfa;" horiz-adv-x="562" 
d="M152 191q0 -75 30.5 -107t102.5 -32q71 0 102 32t31 107v295h80v-301q0 -104 -50.5 -150.5t-162.5 -46.5q-113 0 -163 46.5t-50 150.5v235q0 5 -7 9l-31 15l7 42h102q9 0 9 -10v-285zM306 564h-74l121 140h87z" />
    <glyph glyph-name="ucircumflex" unicode="&#xfb;" horiz-adv-x="562" 
d="M152 191q0 -75 30.5 -107t102.5 -32q71 0 102 32t31 107v295h80v-301q0 -104 -50.5 -150.5t-162.5 -46.5q-113 0 -163 46.5t-50 150.5v235q0 5 -7 9l-31 15l7 42h102q9 0 9 -10v-285zM245 704h80l123 -140h-73l-90 95l-90 -95h-73z" />
    <glyph glyph-name="utilde" unicode="&#x169;" horiz-adv-x="562" 
d="M152 191q0 -75 30.5 -107t102.5 -32q71 0 102 32t31 107v295h80v-301q0 -104 -50.5 -150.5t-162.5 -46.5q-113 0 -163 46.5t-50 150.5v235q0 5 -7 9l-31 15l7 42h102q9 0 9 -10v-285zM130 585q0 54 21 78t67 24q21 0 38 -8t31 -17.5t27 -17.5t27 -8q23 0 32 11.5t9 39.5
v7h58v-11q0 -54 -21 -78t-67 -24q-21 0 -38 8t-31 17.5t-27.5 17.5t-26.5 8q-23 0 -32 -11.5t-9 -39.5v-6h-58v10z" />
    <glyph glyph-name="udieresis" unicode="&#xfc;" horiz-adv-x="562" 
d="M152 191q0 -75 30.5 -107t102.5 -32q71 0 102 32t31 107v295h80v-301q0 -104 -50.5 -150.5t-162.5 -46.5q-113 0 -163 46.5t-50 150.5v235q0 5 -7 9l-31 15l7 42h102q9 0 9 -10v-285zM334 634q0 26 12 37.5t39 11.5q50 0 50 -49t-50 -49q-27 0 -39 11.5t-12 37.5z
M135 634q0 49 50 49q27 0 39 -11.5t12 -37.5t-12 -37.5t-39 -11.5q-50 0 -50 49z" />
    <glyph glyph-name="umacron" unicode="&#x16b;" horiz-adv-x="562" 
d="M152 191q0 -75 30.5 -107t102.5 -32q71 0 102 32t31 107v295h80v-301q0 -104 -50.5 -150.5t-162.5 -46.5q-113 0 -163 46.5t-50 150.5v235q0 5 -7 9l-31 15l7 42h102q9 0 9 -10v-285zM134 663h302v-57h-302v57z" />
    <glyph glyph-name="ubreve" unicode="&#x16d;" horiz-adv-x="562" 
d="M152 191q0 -75 30.5 -107t102.5 -32q71 0 102 32t31 107v295h80v-301q0 -104 -50.5 -150.5t-162.5 -46.5q-113 0 -163 46.5t-50 150.5v235q0 5 -7 9l-31 15l7 42h102q9 0 9 -10v-285zM191 704q0 -51 21.5 -72.5t72.5 -21.5t72.5 21.5t21.5 72.5h58q0 -79 -36 -114
t-116 -35t-116 35t-36 114h58z" />
    <glyph glyph-name="uring" unicode="&#x16f;" horiz-adv-x="562" 
d="M152 191q0 -75 30.5 -107t102.5 -32q71 0 102 32t31 107v295h80v-301q0 -104 -50.5 -150.5t-162.5 -46.5q-113 0 -163 46.5t-50 150.5v235q0 5 -7 9l-31 15l7 42h102q9 0 9 -10v-285zM182 634q0 50 24.5 72t78.5 22t78.5 -22t24.5 -72q0 -49 -24.5 -71.5t-78.5 -22.5
t-78.5 22.5t-24.5 71.5zM229 634q0 -30 13 -43t43 -13t43 12.5t13 43.5q0 30 -13 43.5t-43 13.5t-43 -13.5t-13 -43.5z" />
    <glyph glyph-name="uhungarumlaut" unicode="&#x171;" horiz-adv-x="562" 
d="M152 191q0 -75 30.5 -107t102.5 -32q71 0 102 32t31 107v295h80v-301q0 -104 -50.5 -150.5t-162.5 -46.5q-113 0 -163 46.5t-50 150.5v235q0 5 -7 9l-31 15l7 42h102q9 0 9 -10v-285zM407 564h-75l121 140h87zM207 564h-75l122 140h86z" />
    <glyph glyph-name="uogonek" unicode="&#x173;" horiz-adv-x="562" 
d="M72 420q0 5 -7 9l-31 15l7 42h102q9 0 9 -10v-285q0 -75 30.5 -107t102.5 -32q71 0 102 32t31 107v295h80v-301q0 -38 -5.5 -66.5t-18.5 -50t-33.5 -38.5t-50.5 -33q-60 -31 -93 -65t-33 -66q0 -25 14.5 -36t47.5 -11q11 0 20.5 1t16.5 3v-49q-11 -3 -24.5 -4t-29.5 -1
q-57 0 -83 20t-26 65q0 32 25.5 67t73.5 70q-13 -2 -23 -2t-21 1q-96 5 -139.5 50.5t-43.5 144.5v235z" />
    <glyph glyph-name="wgrave" unicode="&#x1e81;" horiz-adv-x="797" 
d="M773 486q-17 -58 -37.5 -124t-43 -131.5t-45.5 -125t-43 -105.5h-87q-17 38 -34.5 86.5t-35.5 102.5q-7 20 -14 44t-13.5 48.5t-12 46.5t-8.5 39h-1q-3 -17 -8.5 -39t-12 -46.5t-13.5 -48.5t-14 -44q-18 -54 -35.5 -102.5t-34.5 -86.5h-87q-20 46 -43 105.5t-45.5 125
t-43.5 131.5t-37 124h80q7 -24 15 -52.5t17 -57t17.5 -56.5t15.5 -50q17 -54 34 -104.5t32 -92.5h2q15 42 32.5 92.5t34.5 104.5q7 22 15 48t15.5 53t15 53t13.5 50h71q6 -24 13.5 -50t15.5 -53t16 -53t15 -48q17 -54 34.5 -104.5t32.5 -92.5h2q15 42 32 92.5t34 104.5
q7 22 15.5 50t17.5 56.5t17 57t15 52.5h79zM233 704h87l121 -140h-74z" />
    <glyph glyph-name="wacute" unicode="&#x1e83;" horiz-adv-x="797" 
d="M773 486q-17 -58 -37.5 -124t-43 -131.5t-45.5 -125t-43 -105.5h-87q-17 38 -34.5 86.5t-35.5 102.5q-7 20 -14 44t-13.5 48.5t-12 46.5t-8.5 39h-1q-3 -17 -8.5 -39t-12 -46.5t-13.5 -48.5t-14 -44q-18 -54 -35.5 -102.5t-34.5 -86.5h-87q-20 46 -43 105.5t-45.5 125
t-43.5 131.5t-37 124h80q7 -24 15 -52.5t17 -57t17.5 -56.5t15.5 -50q17 -54 34 -104.5t32 -92.5h2q15 42 32.5 92.5t34.5 104.5q7 22 15 48t15.5 53t15 53t13.5 50h71q6 -24 13.5 -50t15.5 -53t16 -53t15 -48q17 -54 34.5 -104.5t32.5 -92.5h2q15 42 32 92.5t34 104.5
q7 22 15.5 50t17.5 56.5t17 57t15 52.5h79zM417 564h-74l121 140h87z" />
    <glyph glyph-name="wcircumflex" unicode="&#x175;" horiz-adv-x="797" 
d="M773 486q-17 -58 -37.5 -124t-43 -131.5t-45.5 -125t-43 -105.5h-87q-17 38 -34.5 86.5t-35.5 102.5q-7 20 -14 44t-13.5 48.5t-12 46.5t-8.5 39h-1q-3 -17 -8.5 -39t-12 -46.5t-13.5 -48.5t-14 -44q-18 -54 -35.5 -102.5t-34.5 -86.5h-87q-20 46 -43 105.5t-45.5 125
t-43.5 131.5t-37 124h80q7 -24 15 -52.5t17 -57t17.5 -56.5t15.5 -50q17 -54 34 -104.5t32 -92.5h2q15 42 32.5 92.5t34.5 104.5q7 22 15 48t15.5 53t15 53t13.5 50h71q6 -24 13.5 -50t15.5 -53t16 -53t15 -48q17 -54 34.5 -104.5t32.5 -92.5h2q15 42 32 92.5t34 104.5
q7 22 15.5 50t17.5 56.5t17 57t15 52.5h79zM358 704h80l123 -140h-73l-90 95l-90 -95h-73z" />
    <glyph glyph-name="wdieresis" unicode="&#x1e85;" horiz-adv-x="797" 
d="M773 486q-17 -58 -37.5 -124t-43 -131.5t-45.5 -125t-43 -105.5h-87q-17 38 -34.5 86.5t-35.5 102.5q-7 20 -14 44t-13.5 48.5t-12 46.5t-8.5 39h-1q-3 -17 -8.5 -39t-12 -46.5t-13.5 -48.5t-14 -44q-18 -54 -35.5 -102.5t-34.5 -86.5h-87q-20 46 -43 105.5t-45.5 125
t-43.5 131.5t-37 124h80q7 -24 15 -52.5t17 -57t17.5 -56.5t15.5 -50q17 -54 34 -104.5t32 -92.5h2q15 42 32.5 92.5t34.5 104.5q7 22 15 48t15.5 53t15 53t13.5 50h71q6 -24 13.5 -50t15.5 -53t16 -53t15 -48q17 -54 34.5 -104.5t32.5 -92.5h2q15 42 32 92.5t34 104.5
q7 22 15.5 50t17.5 56.5t17 57t15 52.5h79zM447 634q0 26 12 37.5t39 11.5q50 0 50 -49t-50 -49q-27 0 -39 11.5t-12 37.5zM248 634q0 49 50 49q27 0 39 -11.5t12 -37.5t-12 -37.5t-39 -11.5q-50 0 -50 49z" />
    <glyph glyph-name="ygrave" unicode="&#x1ef3;" horiz-adv-x="500" 
d="M10 486h87l161 -389l139 389h85l-208 -554q-16 -43 -33 -72t-39 -47t-49.5 -25.5t-64.5 -7.5h-16.5t-16.5 2v62q7 -1 14.5 -1h12.5q23 0 40.5 5t31.5 16.5t25 31t22 48.5l19 53zM89 704h87l121 -140h-74z" />
    <glyph glyph-name="yacute" unicode="&#xfd;" horiz-adv-x="500" 
d="M10 486h87l161 -389l139 389h85l-208 -554q-16 -43 -33 -72t-39 -47t-49.5 -25.5t-64.5 -7.5h-16.5t-16.5 2v62q7 -1 14.5 -1h12.5q23 0 40.5 5t31.5 16.5t25 31t22 48.5l19 53zM265 564h-74l121 140h87z" />
    <glyph glyph-name="ycircumflex" unicode="&#x177;" horiz-adv-x="500" 
d="M10 486h87l161 -389l139 389h85l-208 -554q-16 -43 -33 -72t-39 -47t-49.5 -25.5t-64.5 -7.5h-16.5t-16.5 2v62q7 -1 14.5 -1h12.5q23 0 40.5 5t31.5 16.5t25 31t22 48.5l19 53zM204 704h80l123 -140h-73l-90 95l-90 -95h-73z" />
    <glyph glyph-name="ydieresis" unicode="&#xff;" horiz-adv-x="500" 
d="M10 486h87l161 -389l139 389h85l-208 -554q-16 -43 -33 -72t-39 -47t-49.5 -25.5t-64.5 -7.5h-16.5t-16.5 2v62q7 -1 14.5 -1h12.5q23 0 40.5 5t31.5 16.5t25 31t22 48.5l19 53zM293 634q0 26 12 37.5t39 11.5q50 0 50 -49t-50 -49q-27 0 -39 11.5t-12 37.5zM94 634
q0 49 50 49q27 0 39 -11.5t12 -37.5t-12 -37.5t-39 -11.5q-50 0 -50 49z" />
    <glyph glyph-name="zacute" unicode="&#x17a;" horiz-adv-x="481" 
d="M46 55l284 368h-276v63h377v-56l-284 -367h292v-63h-393v55zM264 564h-74l121 140h87z" />
    <glyph glyph-name="zcaron" unicode="&#x17e;" horiz-adv-x="481" 
d="M46 55l284 368h-276v63h377v-56l-284 -367h292v-63h-393v55zM283 564h-80l-123 140h73l90 -95l90 95h73z" />
    <glyph glyph-name="zdotaccent" unicode="&#x17c;" horiz-adv-x="481" 
d="M46 55l284 368h-276v63h377v-56l-284 -367h292v-63h-393v55zM192 634q0 26 12 37.5t39 11.5t39 -11.5t12 -37.5t-12 -37.5t-39 -11.5t-39 11.5t-12 37.5z" />
    <glyph glyph-name="apple" unicode="&#xf8ff;" horiz-adv-x="591" 
d="M230 202v65h196v66h-196v195h261v-65h-196v-65h196v-196h-261zM165 594v-529h73v-65h-138v659h391v-65h-326z" />
    <glyph glyph-name="uni2117" unicode="&#x2117;" horiz-adv-x="832" 
d="M42 336q0 96 21.5 165.5t66.5 114.5t116 66.5t170 21.5t170 -21.5t116 -66.5t66.5 -114.5t21.5 -165.5t-21.5 -165.5t-66.5 -114.5t-116 -66.5t-170 -21.5t-170 21.5t-116 66.5t-66.5 114.5t-21.5 165.5zM92 336q0 -86 19 -147.5t59 -100.5t101 -57.5t145 -18.5t145 18.5
t101 57.5t59 100.5t19 147.5t-18.5 147.5t-57.5 100.5t-100.5 57.5t-147.5 18.5t-147.5 -18.5t-100.5 -57.5t-57.5 -100.5t-18.5 -147.5zM277 544h170q79 0 114.5 -30.5t35.5 -99.5t-35.5 -99.5t-114.5 -30.5h-111v-156h-59v416zM336 333h108q50 0 71.5 18.5t21.5 62.5
t-21.5 62.5t-71.5 18.5h-108v-162z" />
    <glyph glyph-name="registered.alt" unicode="&#xec00;" horiz-adv-x="528" 
d="M36 464q0 118 53.5 171t174.5 53q120 0 174 -53t54 -171q0 -119 -54 -171.5t-174 -52.5t-174 52.5t-54 171.5zM72 464q0 -103 45 -148t147 -45t147 45t45 148t-45 148t-147 45t-147 -45t-45 -148zM179 584h100q44 0 64 -17t20 -55q0 -62 -57 -69l63 -99h-41l-60 95h-54
v-95h-35v240zM214 468h63q27 0 39 10t12 34q0 23 -12 33t-39 10h-63v-87z" />
    <glyph glyph-name="uni2120" unicode="&#x2120;" horiz-adv-x="924" 
d="M43 563q0 61 37 89t122 28q67 0 126 -17v-52q-30 9 -61 14t-61 5q-54 0 -76.5 -15t-22.5 -50q0 -27 18 -40t45.5 -21t59 -14.5t59 -19.5t45.5 -36.5t18 -64.5q0 -63 -38.5 -92t-123.5 -29q-76 0 -143 21v52q35 -11 69 -17t69 -6q55 0 79 16.5t24 52.5q0 27 -18 41.5
t-45.5 22.5t-59 14.5t-59 19.5t-45.5 35.5t-18 62.5zM451 672h61l145 -235l147 235h60v-416h-58v324l-128 -204h-43l-125 204v-324h-59v416z" />
    <glyph glyph-name="afii61248" unicode="&#x2105;" horiz-adv-x="864" 
d="M44 510q0 90 38 130t124 40q26 0 50.5 -3t45.5 -10v-51q-42 14 -87 14q-59 0 -84 -27.5t-25 -92.5t25 -92.5t84 -27.5q46 0 87 15v-51q-40 -13 -96 -13q-86 0 -124 39.5t-38 129.5zM495 161q0 90 38.5 130t123.5 40t123.5 -40t38.5 -130t-38 -129.5t-124 -39.5
q-85 0 -123.5 39.5t-38.5 129.5zM557 161q0 -64 23 -92t77 -28t77 28t23 92q0 65 -23 92.5t-77 27.5t-77 -27.5t-23 -92.5zM541 672h52l-302 -672h-52z" />
    <glyph glyph-name="uni2196" unicode="&#x2196;" horiz-adv-x="864" 
d="M229 438l2 -327l-75 75v378h378l75 -75l-327 2l445 -445l-53 -53z" />
    <glyph glyph-name="uni2197" unicode="&#x2197;" horiz-adv-x="864" 
d="M582 491l-328 -2l76 75h378v-378l-75 -76l2 328l-445 -445l-53 53z" />
    <glyph glyph-name="uni2198" unicode="&#x2198;" horiz-adv-x="864" 
d="M635 138l-2 327l75 -75v-378h-378l-75 75l327 -2l-445 445l53 53z" />
    <glyph glyph-name="uni2199" unicode="&#x2199;" horiz-adv-x="864" 
d="M282 85l327 2l-75 -75h-378v378l75 75l-2 -327l445 445l53 -53z" />
    <glyph glyph-name="commaaccent.alt" unicode="&#xea01;" horiz-adv-x="240" 
d="M132 742h56l-50 -188h-71z" />
    <glyph glyph-name="caron.alt" unicode="&#xea02;" horiz-adv-x="240" 
d="M129 554h-56l50 188h71z" />
    <glyph glyph-name="ringacute" unicode="&#xea03;" horiz-adv-x="240" 
d="M167 722q56 -16 56 -88q0 -49 -24.5 -71.5t-78.5 -22.5t-78.5 22.5t-24.5 71.5q0 43 18.5 65t59.5 27l93 106h87zM64 634q0 -30 13 -43t43 -13t43 12.5t13 43.5q0 30 -13 43.5t-43 13.5t-43 -13.5t-13 -43.5z" />
    <glyph glyph-name="periodcentered.cap" unicode="&#xe805;" horiz-adv-x="231" 
d="M61 342q0 29 13 41t42 12t41.5 -12t12.5 -41t-12.5 -41t-41.5 -12t-42 12t-13 41z" />
    <glyph glyph-name="bullet.cap" unicode="&#xe815;" horiz-adv-x="480" 
d="M96 336q0 30 11 56t30.5 45.5t46 31t56.5 11.5t56 -11.5t45.5 -31t31 -45.5t11.5 -56t-11.5 -56.5t-31 -46t-45.5 -30.5t-56 -11t-56.5 11t-46 30.5t-30.5 46t-11 56.5z" />
    <glyph glyph-name="at.cap" unicode="&#xe814;" horiz-adv-x="977" 
d="M57 336q0 118 25.5 202.5t79 139t137.5 80t201 25.5q111 0 190.5 -22.5t130.5 -70.5t75 -123t24 -180q0 -139 -42.5 -205t-141.5 -66q-43 0 -72.5 16t-42.5 46q-23 -32 -60.5 -47t-93.5 -15q-98 0 -140.5 52t-42.5 168t42.5 168t140.5 52q104 0 145 -58l4 46h64v-297
q0 -37 16 -53.5t52 -16.5q56 0 79 50t23 154q0 90 -20 155t-63 106t-109.5 60.5t-160.5 19.5q-98 0 -168 -22t-115 -68.5t-66 -119.5t-21 -176t22 -176t69.5 -119.5t122 -68.5t178.5 -22q140 0 274 44v-64q-131 -41 -277 -41q-121 0 -208 25.5t-142.5 79.5t-82 138.5
t-26.5 203.5zM363 336q0 -84 28.5 -120t94.5 -36q63 0 90 26.5t27 88.5v82q0 62 -27 88.5t-90 26.5q-66 0 -94.5 -36t-28.5 -120z" />
    <glyph glyph-name="slash.cap" unicode="&#xe806;" horiz-adv-x="384" 
d="M304 752h71l-295 -832h-71z" />
    <glyph glyph-name="backslash.cap" unicode="&#xe807;" horiz-adv-x="384" 
d="M9 752h71l295 -832h-71z" />
    <glyph glyph-name="parenleft.cap" unicode="&#xe808;" horiz-adv-x="311" 
d="M73 336q0 121 33.5 226t99.5 190h80q-68 -87 -102.5 -192.5t-34.5 -223.5t34.5 -223.5t102.5 -192.5h-80q-66 85 -99.5 190t-33.5 226z" />
    <glyph glyph-name="parenright.cap" unicode="&#xe809;" horiz-adv-x="311" 
d="M238 336q0 -121 -33.5 -226t-99.5 -190h-80q68 87 102.5 192.5t34.5 223.5t-34.5 223.5t-102.5 192.5h80q66 -85 99.5 -190t33.5 -226z" />
    <glyph glyph-name="bracketleft.cap" unicode="&#xe80a;" horiz-adv-x="311" 
d="M95 752h190v-63h-116v-706h116v-63h-190v832z" />
    <glyph glyph-name="bracketright.cap" unicode="&#xe80b;" horiz-adv-x="311" 
d="M217 -80h-191v63h117v706h-117v63h191v-832z" />
    <glyph glyph-name="braceleft.cap" unicode="&#xe80c;" horiz-adv-x="311" 
d="M10 367h11q48 0 69 21t21 69v146q0 78 35.5 113.5t116.5 35.5h22v-63h-11q-48 0 -68.5 -20.5t-20.5 -68.5v-149q0 -45 -16.5 -74.5t-51.5 -40.5q35 -11 51.5 -40.5t16.5 -74.5v-149q0 -48 20.5 -68.5t68.5 -20.5h11v-63h-22q-81 0 -116.5 35.5t-35.5 113.5v146
q0 48 -21 69t-69 21h-11v62z" />
    <glyph glyph-name="braceright.cap" unicode="&#xe80d;" horiz-adv-x="311" 
d="M301 305h-11q-48 0 -68.5 -21t-20.5 -69v-146q0 -78 -36 -113.5t-116 -35.5h-23v63h11q48 0 69 20.5t21 68.5v149q0 45 16 74.5t51 40.5q-35 11 -51 40.5t-16 74.5v149q0 48 -21 68.5t-69 20.5h-11v63h23q80 0 116 -35.5t36 -113.5v-146q0 -48 20.5 -69t68.5 -21h11v-62z
" />
    <glyph glyph-name="questiondown.cap" unicode="&#xe813;" horiz-adv-x="444" 
d="M296 468v-14q0 -41 -13 -70.5t-32 -52t-41.5 -41t-41.5 -37.5t-32 -40.5t-13 -51.5q0 -59 32.5 -84t107.5 -25q35 0 72.5 7t76.5 21v-65q-77 -27 -158 -27q-113 0 -163 39.5t-50 127.5q0 41 14 71t34.5 53t45 42t45 39t34.5 43.5t14 56.5v8h68zM316 629q0 -29 -12.5 -41
t-41.5 -12t-41.5 12t-12.5 41q0 28 12.5 40t41.5 12t41.5 -12t12.5 -40z" />
    <glyph glyph-name="exclamdown.cap" unicode="&#xe812;" horiz-adv-x="247" 
d="M164 0h-81l4 468h73zM178 629q0 -29 -12.5 -41t-41.5 -12t-41.5 12t-12.5 41q0 28 12.5 40t41.5 12t41.5 -12t12.5 -40z" />
    <glyph glyph-name="guillemotleft.cap" unicode="&#xe810;" horiz-adv-x="506" 
d="M114 338l132 -193h-76l-139 193l139 193h76zM341 338l132 -193h-76l-139 193l139 193h76z" />
    <glyph glyph-name="guillemotright.cap" unicode="&#xe811;" horiz-adv-x="506" 
d="M165 338l-132 193h76l140 -193l-140 -193h-76zM392 338l-132 193h76l140 -193l-140 -193h-76z" />
    <glyph glyph-name="guilsinglleft.cap" unicode="&#xe80e;" horiz-adv-x="279" 
d="M114 338l132 -193h-76l-139 193l139 193h76z" />
    <glyph glyph-name="guilsinglright.cap" unicode="&#xe80f;" horiz-adv-x="279" 
d="M165 338l-132 193h76l140 -193l-140 -193h-76z" />
    <glyph glyph-name="hyphen.cap" unicode="&#xe800;" horiz-adv-x="336" 
d="M26 373h268v-62h-268v62z" />
    <glyph glyph-name="uni00AD.cap" unicode="&#xe801;" horiz-adv-x="336" 
d="M26 373h268v-62h-268v62z" />
    <glyph glyph-name="endash.cap" unicode="&#xe802;" 
d="M26 373h524v-62h-524v62z" />
    <glyph glyph-name="emdash.cap" unicode="&#xe803;" horiz-adv-x="864" 
d="M26 373h812v-62h-812v62z" />
    <glyph glyph-name="arrowleft.cap" unicode="&#xe880;" horiz-adv-x="864" 
d="M182 299l233 -231h-107l-267 268l267 268h107l-233 -231h630v-74h-630z" />
    <glyph glyph-name="arrowup.cap" unicode="&#xe881;" horiz-adv-x="864" 
d="M395 586l-231 -233v107l268 267l268 -267v-107l-231 233v-630h-74v630z" />
    <glyph glyph-name="arrowright.cap" unicode="&#xe882;" horiz-adv-x="864" 
d="M682 373l-233 231h107l267 -268l-267 -268h-107l233 231h-630v74h630z" />
    <glyph glyph-name="arrowdown.cap" unicode="&#xe883;" horiz-adv-x="864" 
d="M469 86l231 233v-107l-268 -267l-268 267v107l231 -233v630h74v-630z" />
    <glyph glyph-name="uni2196.cap" unicode="&#xe884;" horiz-adv-x="864" 
d="M229 486l2 -327l-75 75v378h378l75 -75l-327 2l445 -445l-53 -53z" />
    <glyph glyph-name="uni2197.cap" unicode="&#xe885;" horiz-adv-x="864" 
d="M582 539l-328 -2l76 75h378v-378l-75 -76l2 328l-445 -445l-53 53z" />
    <glyph glyph-name="uni2198.cap" unicode="&#xe886;" horiz-adv-x="864" 
d="M635 186l-2 327l75 -75v-378h-378l-75 75l327 -2l-445 445l53 53z" />
    <glyph glyph-name="uni2199.cap" unicode="&#xe887;" horiz-adv-x="864" 
d="M282 133l327 2l-75 -75h-378v378l75 75l-2 -327l445 445l53 -53z" />
    <glyph glyph-name="zero.otab" unicode="&#xe020;" 
d="M49 259q0 140 56.5 205.5t182.5 65.5t182.5 -65.5t56.5 -205.5t-56.5 -205.5t-182.5 -65.5t-182.5 65.5t-56.5 205.5zM125 259q0 -108 38 -157.5t125 -49.5t125 49.5t38 157.5q0 107 -38 157t-125 50t-125 -49.5t-38 -157.5z" />
    <glyph glyph-name="one.otab" unicode="&#xe021;" 
d="M304 445l-185 -74v67l201 80h64v-518h-80v445z" />
    <glyph glyph-name="two.otab" unicode="&#xe022;" 
d="M71 60l229 165q49 35 70.5 66.5t21.5 69.5q0 57 -32.5 81t-107.5 24q-38 0 -78 -7t-82 -21v65q41 13 84 20t88 7q111 0 160 -37.5t49 -122.5q0 -54 -25 -95t-85 -83l-177 -129h293v-63h-408v60z" />
    <glyph glyph-name="three.otab" unicode="&#xe023;" 
d="M465 462l-194 -231q118 -6 172 -51.5t54 -137.5q0 -52 -15.5 -89.5t-48.5 -61.5t-85 -35.5t-124 -11.5q-91 0 -169 25v67q78 -28 163 -28q106 0 152 31.5t46 104.5q0 71 -49 102t-162 31h-25v49l194 229h-311v63h402v-56z" />
    <glyph glyph-name="four.otab" unicode="&#xe024;" 
d="M371 0h-330v57l323 461h81v-455h84v-63h-84v-144h-74v144zM371 63v367l-254 -367h254z" />
    <glyph glyph-name="five.otab" unicode="&#xe025;" 
d="M479 455h-310v-214q43 3 88 3q134 0 194 -47t60 -151q0 -106 -64 -154t-205 -48q-91 0 -169 25v66q81 -27 163 -27q103 0 148 32.5t45 107.5q0 73 -47 105t-154 32q-32 0 -65 -2t-68 -5v340h384v-63z" />
    <glyph glyph-name="six.otab" unicode="&#xe026;" 
d="M55 301q0 99 16.5 169.5t52.5 116t92 66.5t136 21q79 0 148 -21v-65q-35 11 -71 16.5t-71 5.5q-61 0 -103.5 -15.5t-69 -48.5t-38.5 -84.5t-13 -123.5q17 46 61 66t120 20q116 0 168 -50.5t52 -163.5q0 -117 -56.5 -169.5t-182.5 -52.5q-64 0 -109.5 17.5t-75 55.5
t-43 97.5t-13.5 142.5zM141 221q0 -169 154 -169q87 0 124.5 37t37.5 120q0 81 -35 116.5t-116 35.5q-87 0 -126 -33t-39 -107z" />
    <glyph glyph-name="seven.otab" unicode="&#xe027;" 
d="M511 461l-280 -605h-81l276 596h-366v66h451v-57z" />
    <glyph glyph-name="eight.otab" unicode="&#xe028;" 
d="M288 371q80 10 114 38.5t34 87.5q0 61 -34 87.5t-114 26.5t-114 -26.5t-34 -87.5q0 -59 34 -87.5t114 -38.5zM47 170q0 75 35 114t117 55q-72 14 -104 52t-32 109q0 91 53 132.5t172 41.5t172 -41.5t53 -132.5q0 -71 -32 -109t-104 -52q82 -16 117 -55t35 -114
q0 -96 -56.5 -139t-184.5 -43t-184.5 43t-56.5 139zM288 306q-45 -5 -76.5 -14.5t-50.5 -25.5t-27.5 -39t-8.5 -54q0 -65 38 -93.5t125 -28.5t125 28.5t38 93.5q0 31 -8.5 54t-27.5 39t-50.5 25.5t-76.5 14.5z" />
    <glyph glyph-name="nine.otab" unicode="&#xe029;" 
d="M521 216q0 -99 -16.5 -169.5t-52.5 -115.5t-92.5 -66t-135.5 -21t-148 21v65q35 -11 71 -16.5t71 -5.5q61 0 103.5 15.5t69 48.5t38.5 84.5t13 123.5q-17 -46 -61 -66t-120 -20q-116 0 -168 50.5t-52 163.5q0 116 56.5 169t182.5 53q64 0 109.5 -17.5t75 -55.5t43 -97.5
t13.5 -143.5zM435 296q0 170 -154 170q-87 0 -124.5 -37t-37.5 -120q0 -81 35 -117t116 -36q87 0 126 33t39 107z" />
    <glyph glyph-name="dollar.otab" unicode="&#xe02a;" 
d="M251 -11q-77 3 -146 24v64q86 -26 169 -26q68 0 97 20t29 68q0 33 -22.5 50.5t-56 27.5t-72.5 18.5t-72.5 24t-56 44t-22.5 78.5q0 69 36 103.5t117 42.5v150h74v-149q64 -3 128 -20v-64q-38 11 -76 16.5t-75 5.5q-66 0 -94 -19.5t-28 -64.5q0 -32 22.5 -48.5t56 -26.5
t72.5 -18t72.5 -24t56 -45.5t22.5 -80.5q0 -71 -37.5 -106.5t-119.5 -43.5v-150h-74v149z" />
    <glyph glyph-name="cent.otab" unicode="&#xe02b;" 
d="M100 259q0 120 44.5 180.5t143.5 71.5v167h74v-164q67 -3 119 -19v-65q-62 20 -130 20q-91 0 -130.5 -44.5t-39.5 -146.5t39.5 -146.5t130.5 -44.5q68 0 130 20v-65q-27 -8 -56.5 -13t-62.5 -6v-164h-74v167q-99 11 -143.5 71t-44.5 181z" />
    <glyph glyph-name="Euro.otab" unicode="&#xe02c;" 
d="M76 226h51v33v20.5t1 19.5h-52v43h57q15 98 74 143t175 45q72 0 134 -17v-59q-29 10 -61 14.5t-64 4.5q-81 0 -122.5 -31t-54.5 -100h217v-43h-222q-1 -10 -1 -19.5v-20.5v-17t1 -16h222v-44h-218q12 -73 54 -105t124 -32q32 0 64 4t61 14v-58q-62 -17 -134 -17
q-117 0 -176.5 46t-73.5 148h-56v44z" />
    <glyph glyph-name="sterling.otab" unicode="&#xe02d;" 
d="M92 59h83v175h-67v58h67v61q0 91 43.5 134t142.5 43q54 0 107 -17v-62q-50 18 -96 18q-66 0 -91.5 -27.5t-25.5 -90.5v-59h160v-58h-160v-175h221v-59h-384v59z" />
    <glyph glyph-name="yen.otab" unicode="&#xe02e;" 
d="M248 103h-137v45h137v72h-137v45h116l-163 253h88l136 -217l136 217h88l-163 -253h116v-45h-137v-72h137v-45h-137v-103h-80v103z" />
    <glyph glyph-name="zero.lprop" unicode="&#xe010;" horiz-adv-x="636" 
d="M57 336q0 92 15 158t47 108t81 62t118 20t118 -20t80.5 -62t46.5 -108t15 -158t-15 -158t-46.5 -108t-80.5 -62t-118 -20t-118 20t-81 62t-47 108t-15 158zM139 336q0 -149 42 -215t137 -66q48 0 81.5 16t55.5 49.5t32 87t10 128.5t-10 128.5t-32 87t-55.5 49.5t-81.5 16
t-81.5 -16t-55.5 -49.5t-32 -87t-10 -128.5z" />
    <glyph glyph-name="one.lprop" unicode="&#xe011;" horiz-adv-x="391" 
d="M212 600l-178 -74v66l193 80h65v-672h-80v600z" />
    <glyph glyph-name="two.lprop" unicode="&#xe012;" horiz-adv-x="518" 
d="M26 60l265 258q45 44 66.5 84t21.5 82q0 71 -36 102t-120 31q-88 0 -176 -30v68q45 16 91 22.5t97 6.5q119 0 172 -45.5t53 -146.5q0 -54 -24.5 -103t-76.5 -100l-226 -223h333v-66h-440v60z" />
    <glyph glyph-name="three.lprop" unicode="&#xe013;" horiz-adv-x="518" 
d="M436 617l-194 -237q118 -6 172 -52t54 -139q0 -106 -64 -153.5t-209 -47.5q-91 0 -169 25v66q79 -27 163 -27q106 0 152 32t46 106q0 73 -49 104.5t-162 31.5h-25v49l194 234h-311v63h402v-55z" />
    <glyph glyph-name="four.lprop" unicode="&#xe014;" horiz-adv-x="593" 
d="M380 148h-346v60l336 464h84v-461h100v-63h-100v-148h-74v148zM380 211v370l-268 -370h268z" />
    <glyph glyph-name="five.lprop" unicode="&#xe015;" horiz-adv-x="534" 
d="M458 609h-310v-219q43 3 88 3q134 0 194 -47t60 -153q0 -108 -64 -156.5t-205 -48.5q-91 0 -169 25v66q81 -27 163 -27q103 0 148 33.5t45 108.5q0 74 -47 107t-154 33q-32 0 -65 -2t-68 -5v345h384v-63z" />
    <glyph glyph-name="six.lprop" unicode="&#xe016;" horiz-adv-x="582" 
d="M58 304q0 100 16.5 172t52.5 118t92 68t136 22q79 0 148 -21v-65q-35 11 -71 16.5t-71 5.5q-61 0 -103.5 -16t-69 -50.5t-38.5 -87.5t-13 -126q17 46 61 67.5t120 21.5q116 0 168 -51t52 -165q0 -118 -56.5 -171.5t-182.5 -53.5q-64 0 -109.5 18t-75 56t-43 98t-13.5 144
zM144 224q0 -172 154 -172q87 0 124.5 37.5t37.5 121.5q0 82 -35 119t-116 37q-87 0 -126 -34.5t-39 -108.5z" />
    <glyph glyph-name="seven.lprop" unicode="&#xe017;" horiz-adv-x="481" 
d="M464 615l-280 -615h-81l276 606h-366v66h451v-57z" />
    <glyph glyph-name="eight.lprop" unicode="&#xe018;" horiz-adv-x="588" 
d="M294 377q82 9 116.5 38t34.5 89q0 63 -35 90t-116 27t-116 -27t-35 -90q0 -60 34.5 -89t116.5 -38zM49 173q0 38 8.5 66.5t27 49t47.5 34t70 21.5q-72 14 -104.5 53t-32.5 110q0 94 54 135.5t175 41.5t174.5 -41.5t53.5 -135.5q0 -71 -32.5 -110t-103.5 -53
q82 -16 117 -55.5t35 -115.5q0 -98 -57.5 -141.5t-186.5 -43.5t-187 43.5t-58 141.5zM294 311q-46 -5 -78 -14.5t-51.5 -25.5t-28 -39.5t-8.5 -55.5q0 -67 38.5 -96t127.5 -29t127.5 29t38.5 96q0 32 -8.5 55.5t-28 39.5t-51.5 25.5t-78 14.5z" />
    <glyph glyph-name="nine.lprop" unicode="&#xe019;" horiz-adv-x="582" 
d="M524 368q0 -100 -16.5 -172t-52.5 -118t-92.5 -68t-135.5 -22t-148 21v65q35 -11 71 -16.5t71 -5.5q61 0 103.5 16t69 50.5t38.5 87t13 126.5q-17 -46 -61 -67.5t-120 -21.5q-116 0 -168 51t-52 165q0 118 56.5 171.5t182.5 53.5q64 0 109.5 -18t75 -56t43 -98t13.5 -144
zM438 448q0 172 -154 172q-87 0 -124.5 -37.5t-37.5 -121.5q0 -82 35 -119t116 -37q87 0 126 34.5t39 108.5z" />
    <glyph glyph-name="dollar.lprop" unicode="&#xe01a;" horiz-adv-x="545" 
d="M236 20q-97 5 -176 31v66q96 -33 199 -33q84 0 119 26t35 83q0 42 -26.5 63.5t-66.5 34t-87 22.5t-87 28t-66.5 50t-26.5 90q0 81 43.5 121.5t139.5 47.5v166h74v-165q84 -3 156 -24v-66q-87 27 -179 27q-82 0 -116 -24t-34 -81q0 -41 26.5 -61t66.5 -32t87 -21.5t87 -28
t66.5 -52t26.5 -93.5q0 -82 -44.5 -124t-142.5 -50v-165h-74v164z" />
    <glyph glyph-name="cent.lprop" unicode="&#xe01b;" horiz-adv-x="481" 
d="M53 336q0 120 44.5 180.5t143.5 71.5v167h74v-164q67 -3 119 -19v-65q-62 20 -130 20q-91 0 -130.5 -44.5t-39.5 -146.5t39.5 -146.5t130.5 -44.5q68 0 130 20v-65q-27 -8 -56.5 -13t-62.5 -6v-164h-74v167q-99 11 -143.5 71t-44.5 181z" />
    <glyph glyph-name="Euro.lprop" unicode="&#xe01c;" horiz-adv-x="556" 
d="M37 293h65q-1 11 -1 21.5v21.5v27.5t1 27.5h-65v51h70q18 127 86.5 184.5t196.5 57.5q79 0 145 -19v-62q-69 20 -136 20q-95 0 -145 -42t-65 -139h256v-51h-262q-1 -13 -1 -27v-28v-22t1 -21h262v-51h-258q13 -104 63.5 -148.5t148.5 -44.5q67 0 136 20v-62
q-66 -19 -145 -19q-132 0 -200 60t-84 194h-69v51z" />
    <glyph glyph-name="sterling.lprop" unicode="&#xe01d;" horiz-adv-x="497" 
d="M40 64h90v247h-74v62h74v98q0 111 51.5 162t166.5 51q60 0 116 -15v-66q-54 15 -104 15q-79 0 -113 -34.5t-34 -115.5v-95h197v-62h-197v-247h259v-64h-432v64z" />
    <glyph glyph-name="yen.lprop" unicode="&#xe01e;" horiz-adv-x="567" 
d="M243 137h-163v51h163v99h-163v50h140l-216 335h91l189 -300l189 300h91l-216 -335h140v-50h-163v-99h163v-51h-163v-137h-82v137z" />
    <glyph glyph-name="zero.oprop" unicode="&#xe030;" horiz-adv-x="593" 
d="M52 259q0 143 58 207t187 64t186.5 -64t57.5 -207t-57.5 -207t-186.5 -64t-187 64t-58 207zM131 259q0 -56 9.5 -95t29.5 -64t51.5 -36.5t75.5 -11.5q88 0 127 48t39 159t-39 159t-127 48q-44 0 -75.5 -11.5t-51.5 -36.5t-29.5 -64.5t-9.5 -94.5z" />
    <glyph glyph-name="one.oprop" unicode="&#xe031;" horiz-adv-x="375" 
d="M204 445l-178 -74v67l193 80h65v-518h-80v445z" />
    <glyph glyph-name="two.oprop" unicode="&#xe032;" horiz-adv-x="486" 
d="M26 60l229 165q49 35 70.5 66.5t21.5 69.5q0 57 -32.5 81t-107.5 24q-38 0 -78 -7t-82 -21v65q41 13 84 20t88 7q111 0 160 -37.5t49 -122.5q0 -54 -25 -95t-85 -83l-177 -129h293v-63h-408v60z" />
    <glyph glyph-name="three.oprop" unicode="&#xe033;" horiz-adv-x="486" 
d="M420 462l-194 -231q118 -6 172 -51.5t54 -137.5q0 -52 -15.5 -89.5t-48.5 -61.5t-85 -35.5t-124 -11.5q-91 0 -169 25v67q78 -28 163 -28q106 0 152 31.5t46 104.5q0 71 -49 102t-162 31h-25v49l194 229h-311v63h402v-56z" />
    <glyph glyph-name="four.oprop" unicode="&#xe034;" horiz-adv-x="529" 
d="M348 0h-330v57l323 461h81v-455h84v-63h-84v-144h-74v144zM348 63v367l-254 -367h254z" />
    <glyph glyph-name="five.oprop" unicode="&#xe035;" horiz-adv-x="518" 
d="M458 455h-310v-214q43 3 88 3q134 0 194 -47t60 -151q0 -106 -64 -154t-205 -48q-91 0 -169 25v66q81 -27 163 -27q103 0 148 32.5t45 107.5q0 73 -47 105t-154 32q-32 0 -65 -2t-68 -5v340h384v-63z" />
    <glyph glyph-name="six.oprop" unicode="&#xe036;" horiz-adv-x="588" 
d="M61 301q0 99 16.5 169.5t52.5 116t92 66.5t136 21q79 0 148 -21v-65q-35 11 -71 16.5t-71 5.5q-61 0 -103.5 -15.5t-69 -48.5t-38.5 -84.5t-13 -123.5q17 46 61 66t120 20q116 0 168 -50.5t52 -163.5q0 -117 -56.5 -169.5t-182.5 -52.5q-64 0 -109.5 17.5t-75 55.5
t-43 97.5t-13.5 142.5zM147 221q0 -169 154 -169q87 0 124.5 37t37.5 120q0 81 -35 116.5t-116 35.5q-87 0 -126 -33t-39 -107z" />
    <glyph glyph-name="seven.oprop" unicode="&#xe037;" horiz-adv-x="481" 
d="M464 461l-280 -605h-81l276 596h-366v66h451v-57z" />
    <glyph glyph-name="eight.oprop" unicode="&#xe038;" horiz-adv-x="572" 
d="M286 371q80 10 114 38.5t34 87.5q0 61 -34 87.5t-114 26.5t-114 -26.5t-34 -87.5q0 -59 34 -87.5t114 -38.5zM45 170q0 75 35 114t117 55q-72 14 -104 52t-32 109q0 91 53 132.5t172 41.5t172 -41.5t53 -132.5q0 -71 -32 -109t-104 -52q82 -16 117 -55t35 -114
q0 -96 -56.5 -139t-184.5 -43t-184.5 43t-56.5 139zM286 306q-45 -5 -76.5 -14.5t-50.5 -25.5t-27.5 -39t-8.5 -54q0 -65 38 -93.5t125 -28.5t125 28.5t38 93.5q0 31 -8.5 54t-27.5 39t-50.5 25.5t-76.5 14.5z" />
    <glyph glyph-name="nine.oprop" unicode="&#xe039;" horiz-adv-x="588" 
d="M527 216q0 -99 -16.5 -169.5t-52.5 -115.5t-92.5 -66t-135.5 -21t-148 21v65q35 -11 71 -16.5t71 -5.5q61 0 103.5 15.5t69 48.5t38.5 84.5t13 123.5q-17 -46 -61 -66t-120 -20q-116 0 -168 50.5t-52 163.5q0 116 56.5 169t182.5 53q64 0 109.5 -17.5t75 -55.5t43 -97.5
t13.5 -143.5zM441 296q0 170 -154 170q-87 0 -124.5 -37t-37.5 -120q0 -81 35 -117t116 -36q87 0 126 33t39 107z" />
    <glyph glyph-name="dollar.oprop" unicode="&#xe03a;" horiz-adv-x="497" 
d="M212 -11q-77 3 -146 24v64q86 -26 169 -26q68 0 97 20t29 68q0 33 -22.5 50.5t-56 27.5t-72.5 18.5t-72.5 24t-56 44t-22.5 78.5q0 69 36 103.5t117 42.5v150h74v-149q64 -3 128 -20v-64q-38 11 -76 16.5t-75 5.5q-66 0 -94 -19.5t-28 -64.5q0 -32 22.5 -48.5t56 -26.5
t72.5 -18t72.5 -24t56 -45.5t22.5 -80.5q0 -71 -37.5 -106.5t-119.5 -43.5v-150h-74v149z" />
    <glyph glyph-name="cent.oprop" unicode="&#xe03b;" horiz-adv-x="481" 
d="M53 259q0 120 44.5 180.5t143.5 71.5v167h74v-164q67 -3 119 -19v-65q-62 20 -130 20q-91 0 -130.5 -44.5t-39.5 -146.5t39.5 -146.5t130.5 -44.5q68 0 130 20v-65q-27 -8 -56.5 -13t-62.5 -6v-164h-74v167q-99 11 -143.5 71t-44.5 181z" />
    <glyph glyph-name="Euro.oprop" unicode="&#xe03c;" horiz-adv-x="524" 
d="M50 226h51v33v20.5t1 19.5h-52v43h57q15 98 74 143t175 45q72 0 134 -17v-59q-29 10 -61 14.5t-64 4.5q-81 0 -122.5 -31t-54.5 -100h217v-43h-222q-1 -10 -1 -19.5v-20.5v-17t1 -16h222v-44h-218q12 -73 54 -105t124 -32q32 0 64 4t61 14v-58q-62 -17 -134 -17
q-117 0 -176.5 46t-73.5 148h-56v44z" />
    <glyph glyph-name="sterling.oprop" unicode="&#xe03d;" horiz-adv-x="449" 
d="M29 59h83v175h-67v58h67v61q0 91 43.5 134t142.5 43q54 0 107 -17v-62q-50 18 -96 18q-66 0 -91.5 -27.5t-25.5 -90.5v-59h160v-58h-160v-175h221v-59h-384v59z" />
    <glyph glyph-name="yen.oprop" unicode="&#xe03e;" horiz-adv-x="477" 
d="M199 103h-137v45h137v72h-137v45h116l-163 253h88l136 -217l136 217h88l-163 -253h116v-45h-137v-72h137v-45h-137v-103h-80v103z" />
    <glyph glyph-name="uni2215" unicode="&#x2215;" horiz-adv-x="128" 
d="M189 672h52l-302 -672h-52z" />
    <glyph glyph-name="uni215F" unicode="&#x215f;" horiz-adv-x="496" 
d="M187 616l-107 -45v51l120 50h48v-416h-61v360zM557 672h52l-302 -672h-52z" />
    <glyph glyph-name="onethird" unicode="&#x2153;" horiz-adv-x="864" 
d="M187 616l-107 -45v51l120 50h48v-416h-61v360zM557 672h52l-302 -672h-52zM795 376l-115 -139q72 -5 103.5 -33.5t31.5 -84.5q0 -68 -41 -97.5t-133 -29.5q-29 0 -55.5 3.5t-51.5 11.5v49q51 -15 103 -15q61 0 88.5 18t27.5 60t-29 60t-95 18h-17v36l111 135h-185v48h257
v-40z" />
    <glyph glyph-name="twothirds" unicode="&#x2154;" horiz-adv-x="864" 
d="M38 300l160 155q28 27 40.5 50t12.5 46q0 42 -21 60t-70 18q-28 0 -55 -4t-55 -13v51q28 9 57.5 13t61.5 4q75 0 109.5 -29t34.5 -93q0 -32 -16.5 -63t-46.5 -60l-132 -129h197v-50h-277v44zM557 672h52l-302 -672h-52zM795 376l-115 -139q72 -5 103.5 -33.5t31.5 -84.5
q0 -68 -41 -97.5t-133 -29.5q-29 0 -55.5 3.5t-51.5 11.5v49q51 -15 103 -15q61 0 88.5 18t27.5 60t-29 60t-95 18h-17v36l111 135h-185v48h257v-40z" />
    <glyph glyph-name="uni2155" unicode="&#x2155;" horiz-adv-x="864" 
d="M803 368h-188v-123q10 2 22.5 2.5t25.5 0.5q83 0 121 -30.5t38 -96.5q0 -68 -40 -98.5t-129 -30.5q-29 0 -55.5 3.5t-52.5 11.5v49q52 -15 103 -15q59 0 85.5 18.5t26.5 63.5q0 43 -27.5 61t-91.5 18q-24 0 -46.5 -1t-35.5 -3v218h244v-48zM187 616l-107 -45v51l120 50
h48v-416h-61v360zM557 672h52l-302 -672h-52z" />
    <glyph glyph-name="uni2156" unicode="&#x2156;" horiz-adv-x="864" 
d="M803 368h-188v-123q10 2 22.5 2.5t25.5 0.5q83 0 121 -30.5t38 -96.5q0 -68 -40 -98.5t-129 -30.5q-29 0 -55.5 3.5t-52.5 11.5v49q52 -15 103 -15q59 0 85.5 18.5t26.5 63.5q0 43 -27.5 61t-91.5 18q-24 0 -46.5 -1t-35.5 -3v218h244v-48zM38 300l160 155q28 27 40.5 50
t12.5 46q0 42 -21 60t-70 18q-28 0 -55 -4t-55 -13v51q28 9 57.5 13t61.5 4q75 0 109.5 -29t34.5 -93q0 -32 -16.5 -63t-46.5 -60l-132 -129h197v-50h-277v44zM557 672h52l-302 -672h-52z" />
    <glyph glyph-name="uni2157" unicode="&#x2157;" horiz-adv-x="864" 
d="M803 368h-188v-123q10 2 22.5 2.5t25.5 0.5q83 0 121 -30.5t38 -96.5q0 -68 -40 -98.5t-129 -30.5q-29 0 -55.5 3.5t-52.5 11.5v49q52 -15 103 -15q59 0 85.5 18.5t26.5 63.5q0 43 -27.5 61t-91.5 18q-24 0 -46.5 -1t-35.5 -3v218h244v-48zM299 632l-115 -139
q72 -5 103.5 -33.5t31.5 -84.5q0 -68 -41 -97.5t-133 -29.5q-29 0 -55.5 3.5t-51.5 11.5v49q51 -15 103 -15q61 0 88.5 18t27.5 60t-29 60t-95 18h-17v36l111 135h-185v48h257v-40zM557 672h52l-302 -672h-52z" />
    <glyph glyph-name="uni2158" unicode="&#x2158;" horiz-adv-x="864" 
d="M230 346h-212v45l204 281h63v-279h61v-47h-61v-90h-55v90zM230 393v212l-154 -212h154zM803 368h-188v-123q10 2 22.5 2.5t25.5 0.5q83 0 121 -30.5t38 -96.5q0 -68 -40 -98.5t-129 -30.5q-29 0 -55.5 3.5t-52.5 11.5v49q52 -15 103 -15q59 0 85.5 18.5t26.5 63.5
q0 43 -27.5 61t-91.5 18q-24 0 -46.5 -1t-35.5 -3v218h244v-48zM557 672h52l-302 -672h-52z" />
    <glyph glyph-name="uni2159" unicode="&#x2159;" horiz-adv-x="864" 
d="M532 188q0 124 43.5 180t144.5 56q24 0 47 -3.5t46 -9.5v-48q-45 13 -89 13q-72 0 -102 -37t-32 -120q12 24 38 37t69 13q72 0 106 -32t34 -104q0 -73 -36 -107t-115 -34q-83 0 -118.5 46t-35.5 150zM594 139q0 -100 91 -100q51 0 73 22t22 71q0 48 -21 69.5t-68 21.5
q-51 0 -74 -20.5t-23 -63.5zM187 616l-107 -45v51l120 50h48v-416h-61v360zM557 672h52l-302 -672h-52z" />
    <glyph glyph-name="uni215A" unicode="&#x215a;" horiz-adv-x="864" 
d="M307 624h-188v-123q10 2 22.5 2.5t25.5 0.5q83 0 121 -30.5t38 -96.5q0 -68 -40 -98.5t-129 -30.5q-29 0 -55.5 3.5t-52.5 11.5v49q52 -15 103 -15q59 0 85.5 18.5t26.5 63.5q0 43 -27.5 61t-91.5 18q-24 0 -46.5 -1t-35.5 -3v218h244v-48zM532 188q0 124 43.5 180
t144.5 56q24 0 47 -3.5t46 -9.5v-48q-45 13 -89 13q-72 0 -102 -37t-32 -120q12 24 38 37t69 13q72 0 106 -32t34 -104q0 -73 -36 -107t-115 -34q-83 0 -118.5 46t-35.5 150zM594 139q0 -100 91 -100q51 0 73 22t22 71q0 48 -21 69.5t-68 21.5q-51 0 -74 -20.5t-23 -63.5z
M557 672h52l-302 -672h-52z" />
    <glyph glyph-name="oneeighth" unicode="&#x215b;" horiz-adv-x="864" 
d="M680 237q48 5 68 21.5t20 51.5q0 36 -20 52t-68 16t-68.5 -16t-20.5 -52q0 -35 20.5 -51.5t68.5 -21.5zM524 109q0 47 20 70t71 33q-45 9 -63 32.5t-18 67.5q0 59 34 85.5t112 26.5q77 0 111 -26.5t34 -85.5q0 -44 -18 -67.5t-63 -32.5q51 -10 71 -33t20 -70
q0 -62 -37 -89.5t-118 -27.5q-82 0 -119 27.5t-37 89.5zM680 189q-54 -6 -76 -23t-22 -55q0 -39 23 -56t75 -17q51 0 74 17t23 56q0 38 -21.5 55t-75.5 23zM187 616l-107 -45v51l120 50h48v-416h-61v360zM557 672h52l-302 -672h-52z" />
    <glyph glyph-name="threeeighths" unicode="&#x215c;" horiz-adv-x="864" 
d="M680 237q48 5 68 21.5t20 51.5q0 36 -20 52t-68 16t-68.5 -16t-20.5 -52q0 -35 20.5 -51.5t68.5 -21.5zM524 109q0 47 20 70t71 33q-45 9 -63 32.5t-18 67.5q0 59 34 85.5t112 26.5q77 0 111 -26.5t34 -85.5q0 -44 -18 -67.5t-63 -32.5q51 -10 71 -33t20 -70
q0 -62 -37 -89.5t-118 -27.5q-82 0 -119 27.5t-37 89.5zM680 189q-54 -6 -76 -23t-22 -55q0 -39 23 -56t75 -17q51 0 74 17t23 56q0 38 -21.5 55t-75.5 23zM299 632l-115 -139q72 -5 103.5 -33.5t31.5 -84.5q0 -68 -41 -97.5t-133 -29.5q-29 0 -55.5 3.5t-51.5 11.5v49
q51 -15 103 -15q61 0 88.5 18t27.5 60t-29 60t-95 18h-17v36l111 135h-185v48h257v-40zM557 672h52l-302 -672h-52z" />
    <glyph glyph-name="fiveeighths" unicode="&#x215d;" horiz-adv-x="864" 
d="M307 624h-188v-123q10 2 22.5 2.5t25.5 0.5q83 0 121 -30.5t38 -96.5q0 -68 -40 -98.5t-129 -30.5q-29 0 -55.5 3.5t-52.5 11.5v49q52 -15 103 -15q59 0 85.5 18.5t26.5 63.5q0 43 -27.5 61t-91.5 18q-24 0 -46.5 -1t-35.5 -3v218h244v-48zM680 237q48 5 68 21.5t20 51.5
q0 36 -20 52t-68 16t-68.5 -16t-20.5 -52q0 -35 20.5 -51.5t68.5 -21.5zM524 109q0 47 20 70t71 33q-45 9 -63 32.5t-18 67.5q0 59 34 85.5t112 26.5q77 0 111 -26.5t34 -85.5q0 -44 -18 -67.5t-63 -32.5q51 -10 71 -33t20 -70q0 -62 -37 -89.5t-118 -27.5q-82 0 -119 27.5
t-37 89.5zM680 189q-54 -6 -76 -23t-22 -55q0 -39 23 -56t75 -17q51 0 74 17t23 56q0 38 -21.5 55t-75.5 23zM557 672h52l-302 -672h-52z" />
    <glyph glyph-name="seveneighths" unicode="&#x215e;" horiz-adv-x="864" 
d="M323 630l-168 -374h-62l167 366h-219v50h282v-42zM680 237q48 5 68 21.5t20 51.5q0 36 -20 52t-68 16t-68.5 -16t-20.5 -52q0 -35 20.5 -51.5t68.5 -21.5zM524 109q0 47 20 70t71 33q-45 9 -63 32.5t-18 67.5q0 59 34 85.5t112 26.5q77 0 111 -26.5t34 -85.5
q0 -44 -18 -67.5t-63 -32.5q51 -10 71 -33t20 -70q0 -62 -37 -89.5t-118 -27.5q-82 0 -119 27.5t-37 89.5zM680 189q-54 -6 -76 -23t-22 -55q0 -39 23 -56t75 -17q51 0 74 17t23 56q0 38 -21.5 55t-75.5 23zM557 672h52l-302 -672h-52z" />
    <glyph glyph-name="uni1E9E" unicode="&#x1e9e;" horiz-adv-x="737" 
d="M84 404q0 73 18 126t56.5 87.5t98.5 50.5t144 16q68 0 131 -6.5t124 -18.5v-53l-162 -226q101 -7 147.5 -53t46.5 -138q0 -106 -60.5 -153.5t-194.5 -47.5q-89 0 -162 18v65q38 -9 76.5 -14t80.5 -5q96 0 137.5 32t41.5 106q0 72 -42 104t-138 32h-22v52l162 227
q-80 15 -163 15q-64 0 -109.5 -12.5t-74.5 -39t-42.5 -68.5t-13.5 -101v-399h-80v404z" />
    <glyph glyph-name="idotaccent" horiz-adv-x="230" 
d="M49 486h101q9 0 9 -10v-476h-80v418q0 6 -1.5 9t-6.5 5l-30 13zM65 634q0 27 12 39t40 12q27 0 39.5 -12t12.5 -39q0 -50 -52 -50q-28 0 -40 12t-12 38z" />
    <glyph glyph-name="uni0410" unicode="&#x410;" horiz-adv-x="648" 
d="M544 0q-11 40 -24.5 85.5t-29.5 93.5h-332q-16 -48 -29.5 -93.5t-24.5 -85.5h-84q21 80 51.5 174t65.5 186t71.5 174t68.5 138h94q32 -56 68.5 -138t71.5 -174t65.5 -186t51.5 -174h-84zM324 598q-17 -33 -35.5 -74t-37 -87t-37 -96t-35.5 -100h290q-17 50 -35.5 100
t-37.5 96t-37 87t-35 74z" />
    <glyph glyph-name="uni0411" unicode="&#x411;" horiz-adv-x="643" 
d="M546 672v-64h-380v-223h208q115 0 167.5 -45t52.5 -147q0 -103 -52 -148t-168 -45h-288v609q0 9 -10 13l-30 13l7 37h493zM166 62h200q78 0 112.5 31t34.5 100t-34.5 99.5t-112.5 30.5h-200v-261z" />
    <glyph glyph-name="uni0412" unicode="&#x412;" horiz-adv-x="643" 
d="M86 609q0 9 -10 13l-30 13l7 37h316q107 0 154 -42.5t47 -134.5q0 -115 -89 -148q113 -28 113 -164q0 -96 -49 -139.5t-160 -43.5h-299v609zM166 63h205q76 0 109 29t33 95t-33 95t-109 29h-205v-248zM166 373h189q72 0 103.5 28t31.5 90t-31.5 90t-103.5 28h-189v-236z
" />
    <glyph glyph-name="uni0413" unicode="&#x413;" horiz-adv-x="515" 
d="M86 609q0 9 -10 13l-30 13l7 37h441v-65h-326v-607h-82v609z" />
    <glyph glyph-name="uni0414" unicode="&#x414;" horiz-adv-x="785" 
d="M664 672v-607h92v-225h-76v160h-583v-160h-76v225h63q32 19 53.5 48t35 72.5t19.5 105.5t6 147v171q0 9 -10 13l-30 13l7 37h499zM278 432q0 -79 -4.5 -137t-15 -101.5t-27.5 -74t-41 -54.5h394v542h-306v-175z" />
    <glyph glyph-name="uni0415" unicode="&#x415;" horiz-adv-x="590" 
d="M537 672v-66h-368v-233h296v-62h-296v-245h376v-66h-459v609q0 9 -10 13l-30 13l7 37h484z" />
    <glyph glyph-name="uni0416" unicode="&#x416;" horiz-adv-x="921" 
d="M422 241l-62 68l-248 -309h-92l289 361l-281 311h92l302 -335v335h77v-335l302 335h92l-281 -311l289 -361h-92l-248 309l-62 -68v-241h-77v241z" />
    <glyph glyph-name="uni0417" unicode="&#x417;" horiz-adv-x="589" 
d="M147 373h115q92 0 131.5 29t39.5 95t-41.5 94t-136.5 28q-48 0 -95.5 -9t-99.5 -26l-12 65q53 17 108 26t108 9q133 0 192.5 -43t59.5 -138q0 -65 -24 -102.5t-84 -54.5q70 -16 101 -56t31 -115q0 -99 -65 -143t-211 -44q-111 0 -218 35v66q53 -17 105.5 -27t103.5 -10
q107 0 154 30t47 99q0 70 -45 100t-149 30h-115v62z" />
    <glyph glyph-name="uni0418" unicode="&#x418;" horiz-adv-x="739" 
d="M163 114l412 558h81v-672h-77v558l-412 -558h-81v609q0 9 -10 13l-30 13l7 37h101q9 0 9 -10v-548z" />
    <glyph glyph-name="uni0419" unicode="&#x419;" horiz-adv-x="739" 
d="M277 880q0 -51 21.5 -72.5t72.5 -21.5t72.5 21.5t21.5 72.5h58q0 -79 -36 -114t-116 -35t-116 35t-36 114h58zM163 114l412 558h81v-672h-77v558l-412 -558h-81v609q0 9 -10 13l-30 13l7 37h101q9 0 9 -10v-548z" />
    <glyph glyph-name="uni041A" unicode="&#x41a;" horiz-adv-x="607" 
d="M169 343l314 329h97l-294 -311l302 -361h-97l-256 309l-66 -68v-241h-83v609q0 9 -10 13l-30 13l7 37h107q9 0 9 -10v-319z" />
    <glyph glyph-name="uni041B" unicode="&#x41b;" horiz-adv-x="753" 
d="M670 672v-672h-83v607h-307v-175q0 -119 -13 -202.5t-40.5 -136.5t-72 -77t-107.5 -24h-12.5t-13.5 1v67q7 -1 10.5 -1h6.5q45 0 75.5 20.5t49.5 65.5t27.5 117t8.5 176v171q0 9 -10 13l-30 13l7 37h504z" />
    <glyph glyph-name="uni041C" unicode="&#x41c;" horiz-adv-x="819" 
d="M411 280l245 392h80v-672h-77v548l-219 -347h-25q-12 0 -19.5 0.5t-12.5 3t-9.5 8t-10.5 15.5l-200 317v-545h-77v609q0 9 -10 13l-30 13l7 37h92q15 0 20 -4t15 -20z" />
    <glyph glyph-name="uni041D" unicode="&#x41d;" horiz-adv-x="739" 
d="M86 609q0 9 -10 13l-30 13l7 37h106q9 0 9 -10v-287h405v297h83v-672h-83v309h-405v-309h-82v609z" />
    <glyph glyph-name="uni041E" unicode="&#x41e;" horiz-adv-x="737" 
d="M49 336q0 92 18.5 158t57.5 108t99.5 62t144.5 20t144.5 -20t99.5 -62t57 -108t18 -158t-18 -158t-57 -108t-99.5 -62t-144.5 -20t-144.5 20t-99.5 62t-57.5 108t-18.5 158zM134 336q0 -75 13 -128.5t41.5 -87t73 -49.5t107.5 -16q62 0 106.5 16t73 49.5t42 87
t13.5 128.5t-13.5 128.5t-42 87t-73 49.5t-106.5 16q-63 0 -107.5 -16t-73 -49.5t-41.5 -87t-13 -128.5z" />
    <glyph glyph-name="uni041F" unicode="&#x41f;" horiz-adv-x="739" 
d="M86 609q0 9 -10 13l-30 13l7 37h603v-672h-83v607h-405v-607h-82v609z" />
    <glyph glyph-name="uni0420" unicode="&#x420;" horiz-adv-x="627" 
d="M166 324h178q86 0 123.5 33t37.5 108t-37.5 108t-123.5 33h-178v-282zM350 672q125 0 180.5 -49t55.5 -158q0 -108 -56 -157t-180 -49h-184v-259h-80v609q0 9 -10 13l-30 13l7 37h297z" />
    <glyph glyph-name="uni0421" unicode="&#x421;" horiz-adv-x="604" 
d="M49 336q0 92 18.5 158t57.5 108t99.5 62t144.5 20q65 0 118 -9t77 -17l-12 -65q-38 11 -81.5 17.5t-90.5 6.5q-65 0 -111.5 -16t-76.5 -49.5t-44 -87t-14 -128.5t14 -128.5t44 -87t76.5 -49.5t111.5 -16q47 0 91 6.5t88 19.5v-68q-87 -25 -190 -25q-84 0 -144.5 20
t-99.5 62t-57.5 108t-18.5 158z" />
    <glyph glyph-name="uni0422" unicode="&#x422;" horiz-adv-x="593" 
d="M255 606h-234v66h551v-66h-234v-606h-83v606z" />
    <glyph glyph-name="uni0423" unicode="&#x423;" horiz-adv-x="615" 
d="M358 151q-21 -44 -43 -75t-48 -50.5t-58.5 -28.5t-74.5 -9q-40 0 -76 9v68q34 -10 70 -10q52 0 87 25t61 80l13 26l-261 486h90l211 -410l188 410h87z" />
    <glyph glyph-name="uni0424" unicode="&#x424;" horiz-adv-x="785" 
d="M354 51q-161 5 -237 76t-76 215t76 215t237 76v87h77v-87q161 -5 237 -76t76 -215t-76 -215t-237 -76v-99h-77v99zM120 342q0 -112 56.5 -166.5t177.5 -59.5v452q-121 -5 -177.5 -59.5t-56.5 -166.5zM666 342q0 112 -57 166.5t-178 59.5v-452q121 5 178 59.5t57 166.5z
" />
    <glyph glyph-name="uni0425" unicode="&#x425;" horiz-adv-x="647" 
d="M272 342l-234 330h91l195 -275l194 275h93l-235 -330l242 -342h-93l-201 287l-202 -287h-93z" />
    <glyph glyph-name="uni0426" unicode="&#x426;" horiz-adv-x="777" 
d="M86 609q0 9 -10 13l-30 13l7 37h106q9 0 9 -10v-597h405v607h83v-607h92v-225h-76v160h-586v609z" />
    <glyph glyph-name="uni0427" unicode="&#x427;" horiz-adv-x="675" 
d="M65 609q0 9 -10 13l-30 13l7 37h106q9 0 9 -10v-161q0 -90 43 -130.5t141 -40.5q43 0 87.5 6t90.5 17v319h83v-672h-83v289q-51 -12 -99 -18.5t-97 -6.5q-131 0 -189.5 55.5t-58.5 175.5v114z" />
    <glyph glyph-name="uni0428" unicode="&#x428;" horiz-adv-x="1043" 
d="M86 609q0 9 -10 13l-30 13l7 37h106q9 0 9 -10v-597h313v607h83v-607h313v607h83v-672h-874v609z" />
    <glyph glyph-name="uni0429" unicode="&#x429;" horiz-adv-x="1081" 
d="M86 609q0 9 -10 13l-30 13l7 37h106q9 0 9 -10v-597h313v607h83v-607h313v607h83v-607h92v-225h-76v160h-890v609z" />
    <glyph glyph-name="uni042A" unicode="&#x42a;" horiz-adv-x="785" 
d="M252 607h-231v65h311v-259h176q124 0 180 -49t56 -157q0 -109 -56 -158t-180 -49h-256v607zM332 65h170q86 0 123.5 33.5t37.5 108.5t-37.5 108t-123.5 33h-170v-283z" />
    <glyph glyph-name="uni042B" unicode="&#x42b;" horiz-adv-x="876" 
d="M793 0h-82v609q0 9 -10 13l-30 13l7 37h106q9 0 9 -10v-662zM166 413h184q124 0 180 -49t56 -157q0 -109 -56 -158t-180 -49h-264v609q0 9 -10 13l-30 13l7 37h104q9 0 9 -10v-249zM166 65h178q86 0 123.5 33.5t37.5 108.5t-37.5 108t-123.5 33h-178v-283z" />
    <glyph glyph-name="uni042C" unicode="&#x42c;" horiz-adv-x="627" 
d="M166 413h184q124 0 180 -49t56 -157q0 -109 -56 -158t-180 -49h-264v609q0 9 -10 13l-30 13l7 37h104q9 0 9 -10v-249zM166 65h178q86 0 123.5 33.5t37.5 108.5t-37.5 108t-123.5 33h-178v-283z" />
    <glyph glyph-name="uni042D" unicode="&#x42d;" horiz-adv-x="605" 
d="M118 373h354q-7 131 -66 188.5t-181 57.5q-46 0 -86 -6t-85 -19l-12 65q38 11 85 18t110 7q84 0 144.5 -20t99 -62t57 -108t18.5 -158t-18.5 -158t-57 -108t-99 -62t-144.5 -20q-103 0 -191 25v65q90 -26 179 -26q63 0 109 14.5t76 46t45.5 80.5t17.5 118h-355v62z" />
    <glyph glyph-name="uni042E" unicode="&#x42e;" horiz-adv-x="970" 
d="M166 375h134q7 163 81 236t229 73q82 0 141 -20t97 -62t55.5 -108t17.5 -158t-17.5 -158t-55.5 -108t-97 -62t-141 -20q-79 0 -136.5 18.5t-95.5 57.5t-57 99.5t-21 145.5h-134v-309h-80v609q0 9 -10 13l-30 13l7 37h104q9 0 9 -10v-287zM380 336q0 -75 13 -128.5t41 -87
t71.5 -49.5t104.5 -16t104.5 16t71.5 49.5t41 87t13 128.5t-13 128.5t-41 87t-71.5 49.5t-104.5 16t-104.5 -16t-71.5 -49.5t-41 -87t-13 -128.5z" />
    <glyph glyph-name="uni042F" unicode="&#x42f;" horiz-adv-x="641" 
d="M558 0h-80v275h-172l-171 -275h-91l179 284q-86 9 -126 54.5t-40 134.5q0 53 13 90.5t40.5 61.5t71 35.5t104.5 11.5h272v-672zM478 608h-183q-84 0 -120 -31t-36 -104t36 -103.5t120 -30.5h183v269z" />
    <glyph glyph-name="uni0400" unicode="&#x400;" horiz-adv-x="590" 
d="M537 672v-66h-368v-233h296v-62h-296v-245h376v-66h-459v609q0 9 -10 13l-30 13l7 37h484zM154 880h87l121 -140h-74z" />
    <glyph glyph-name="uni0401" unicode="&#x401;" horiz-adv-x="588" 
d="M537 672v-66h-368v-233h296v-62h-296v-245h376v-66h-459v609q0 9 -10 13l-30 13l7 37h484zM356 810q0 26 12 37.5t39 11.5q50 0 50 -49t-50 -49q-27 0 -39 11.5t-12 37.5zM157 810q0 49 50 49q27 0 39 -11.5t12 -37.5t-12 -37.5t-39 -11.5q-50 0 -50 49z" />
    <glyph glyph-name="uni0402" unicode="&#x402;" horiz-adv-x="844" 
d="M255 607h-234v65h551v-65h-234v-240q51 12 102.5 18.5t107.5 6.5q135 0 194.5 -48t59.5 -154q0 -107 -56.5 -154.5t-181.5 -47.5q-59 0 -123 15v67q58 -15 112 -15q88 0 126.5 31.5t38.5 103.5q0 73 -41.5 104.5t-136.5 31.5q-54 0 -104 -6t-98 -17v-303h-83v607z" />
    <glyph glyph-name="uni0403" unicode="&#x403;" horiz-adv-x="515" 
d="M86 609q0 9 -10 13l-30 13l7 37h441v-65h-326v-607h-82v609zM314 740h-74l121 140h87z" />
    <glyph glyph-name="uni0404" unicode="&#x404;" horiz-adv-x="604" 
d="M487 311h-354q4 -138 63 -198.5t184 -60.5q47 0 91 6.5t88 19.5v-65q-87 -25 -190 -25q-84 0 -144.5 20t-99.5 62t-57.5 108t-18.5 158t18.5 158t57.5 108t99.5 62t144.5 20q65 0 118 -9t77 -17l-12 -65q-44 13 -84.5 19t-87.5 6q-122 0 -181 -57t-66 -188h354v-62z" />
    <glyph glyph-name="uni0405" unicode="&#x405;" horiz-adv-x="588" 
d="M56 497q0 88 59 137.5t187 49.5q56 0 109 -8.5t98 -22.5l-12 -64q-48 16 -94 23t-95 7q-91 0 -131.5 -26.5t-40.5 -93.5q0 -33 17 -53.5t45.5 -34t64 -23t73 -19t73.5 -22.5t64.5 -34.5t45.5 -53.5t17 -80q0 -98 -61 -144.5t-189 -46.5q-58 0 -115 8t-111 25v67
q55 -18 109.5 -26.5t110.5 -8.5q93 0 134.5 28.5t41.5 95.5q0 46 -29.5 71t-74 39.5t-96.5 26t-96.5 31.5t-74 55t-29.5 97z" />
    <glyph glyph-name="uni0406" unicode="&#x406;" horiz-adv-x="253" 
d="M169 0h-82v609q0 9 -10 13l-30 13l7 37h106q9 0 9 -10v-662z" />
    <glyph glyph-name="uni0407" unicode="&#x407;" horiz-adv-x="254" 
d="M169 0h-82v609q0 9 -10 13l-30 13l7 37h106q9 0 9 -10v-662zM177 810q0 26 12 37.5t39 11.5q50 0 50 -49t-50 -49q-27 0 -39 11.5t-12 37.5zM-22 810q0 49 50 49q27 0 39 -11.5t12 -37.5t-12 -37.5t-39 -11.5q-50 0 -50 49z" />
    <glyph glyph-name="uni0408" unicode="&#x408;" horiz-adv-x="439" 
d="M356 194q0 -108 -50 -157t-161 -49q-64 0 -116 13v67q27 -6 53 -9.5t51 -3.5q75 0 107.5 33t32.5 109v475h83v-478z" />
    <glyph glyph-name="uni0409" unicode="&#x409;" horiz-adv-x="1112" 
d="M659 65h170q86 0 123.5 33.5t37.5 108.5t-37.5 108t-123.5 33h-170v-283zM659 672v-259h176q124 0 180 -49t56 -157q0 -109 -56 -158t-180 -49h-256v607h-299v-175q0 -119 -13 -202.5t-40.5 -136.5t-72 -77t-107.5 -24h-12.5t-13.5 1v67q7 -1 10.5 -1h6.5q45 0 75.5 20.5
t49.5 65.5t27.5 117t8.5 176v171q0 9 -10 13l-30 13l7 37h493z" />
    <glyph glyph-name="uni040A" unicode="&#x40a;" horiz-adv-x="1096" 
d="M164 672v-291h399v291h80v-291h192q116 0 168 -45t52 -145t-52 -145.5t-168 -45.5h-272v316h-399v-316h-80v609q0 9 -10 13l-30 13l7 37h113zM643 65h186q77 0 111 30t34 96t-34 95.5t-111 29.5h-186v-251z" />
    <glyph glyph-name="uni040B" unicode="&#x40b;" horiz-adv-x="844" 
d="M255 607h-234v65h551v-65h-234v-240q49 12 97.5 18.5t96.5 6.5q130 0 189.5 -57t59.5 -174v-161h-83v155q0 88 -43 129.5t-140 41.5q-44 0 -87.5 -6t-89.5 -17v-303h-83v607z" />
    <glyph glyph-name="uni040C" unicode="&#x40c;" horiz-adv-x="607" 
d="M169 343l314 329h97l-294 -311l302 -361h-97l-256 309l-66 -68v-241h-83v609q0 9 -10 13l-30 13l7 37h107q9 0 9 -10v-319zM323 740h-74l121 140h87z" />
    <glyph glyph-name="uni040D" unicode="&#x40d;" horiz-adv-x="739" 
d="M163 114l412 558h81v-672h-77v558l-412 -558h-81v609q0 9 -10 13l-30 13l7 37h101q9 0 9 -10v-548zM266 880h87l121 -140h-74z" />
    <glyph glyph-name="uni040E" unicode="&#x40e;" horiz-adv-x="615" 
d="M226 880q0 -51 21.5 -72.5t72.5 -21.5t72.5 21.5t21.5 72.5h58q0 -79 -36 -114t-116 -35t-116 35t-36 114h58zM358 151q-21 -44 -43 -75t-48 -50.5t-58.5 -28.5t-74.5 -9q-40 0 -76 9v68q34 -10 70 -10q52 0 87 25t61 80l13 26l-261 486h90l211 -410l188 410h87z" />
    <glyph glyph-name="uni040F" unicode="&#x40f;" horiz-adv-x="739" 
d="M168 65h405v607h83v-672h-247v-160h-76v160h-247v609q0 9 -10 13l-30 13l7 37h106q9 0 9 -10v-597z" />
    <glyph glyph-name="uni0490" unicode="&#x490;" horiz-adv-x="515" 
d="M417 672v160h77v-225h-326v-607h-82v609q0 9 -10 13l-30 13l7 37h364z" />
    <glyph glyph-name="uni0492" unicode="&#x492;" horiz-adv-x="529" 
d="M508 672v-65h-326v-261h196v-59h-196v-287h-82v287h-87v59h87v263q0 9 -10 13l-30 13l7 37h441z" />
    <glyph glyph-name="uni04D8" unicode="&#x4d8;" horiz-adv-x="683" 
d="M634 336q0 -92 -17.5 -158t-54.5 -108t-94.5 -62t-138.5 -20q-74 0 -127 19t-87 59.5t-50 103.5t-16 152q0 10 0.5 19t1.5 19h500q-1 70 -16.5 119t-47.5 80.5t-82.5 46t-121.5 14.5q-57 0 -105.5 -9.5t-93.5 -24.5l-12 65q42 14 98.5 23.5t118.5 9.5q91 0 156.5 -20
t107.5 -62t61.5 -108t19.5 -158zM329 49q58 0 99 14t68 44.5t40 78t15 114.5h-420q1 -68 12.5 -115.5t35.5 -77.5t61 -44t89 -14z" />
    <glyph glyph-name="uni049A" unicode="&#x49a;" horiz-adv-x="665" 
d="M483 672h96l-293 -311l252 -296h114v-225h-76v160h-85l-256 309l-66 -68v-241h-83v609q0 9 -10 13l-30 13l7 37h107q9 0 9 -10v-319z" />
    <glyph glyph-name="uni04A2" unicode="&#x4a2;" horiz-adv-x="777" 
d="M86 609q0 9 -10 13l-30 13l7 37h106q9 0 9 -10v-287h405v297h83v-607h92v-225h-76v160h-99v309h-405v-309h-82v609z" />
    <glyph glyph-name="uni04AE" unicode="&#x4ae;" horiz-adv-x="599" 
d="M258 287l-246 385h92l197 -313l195 313h92l-247 -385v-287h-83v287z" />
    <glyph glyph-name="uni04B0" unicode="&#x4b0;" horiz-adv-x="611" 
d="M264 264h-168v60h146l-224 348h92l197 -313l195 313h92l-225 -348h146v-60h-168v-264h-83v264z" />
    <glyph glyph-name="uni04BA" unicode="&#x4ba;" horiz-adv-x="675" 
d="M86 609q0 9 -10 13l-30 13l7 37h106q9 0 9 -10v-279q51 12 99 18.5t97 6.5q131 0 190 -55.5t59 -175.5v-177h-83v171q0 90 -43 130.5t-140 40.5q-45 0 -89.5 -6t-89.5 -17v-319h-82v609z" />
    <glyph glyph-name="uni04E8" unicode="&#x4e8;" horiz-adv-x="737" 
d="M49 336q0 92 18.5 158t57.5 108t99.5 62t144.5 20t144.5 -20t99.5 -62t57 -108t18 -158t-18 -158t-57 -108t-99.5 -62t-144.5 -20t-144.5 20t-99.5 62t-57.5 108t-18.5 158zM369 52q61 0 105.5 14.5t73.5 46t44 80.5t17 118h-481q2 -69 17 -118t44 -80.5t73.5 -46
t106.5 -14.5zM369 620q-120 0 -177 -58t-63 -189h480q-7 131 -64 189t-176 58z" />
    <glyph glyph-name="uni0430" unicode="&#x430;" horiz-adv-x="530" 
d="M382 196q-56 22 -130 22q-69 0 -99 -19.5t-30 -66.5q0 -45 29 -65.5t92 -20.5q72 0 105 25.5t33 80.5v44zM393 50q-44 -62 -164 -62q-96 0 -140.5 34.5t-44.5 108.5t46.5 108t149.5 34q80 0 142 -21v67q0 63 -33.5 89.5t-111.5 26.5q-75 0 -150 -24v64q38 11 77 17t82 6
q113 0 163 -43.5t50 -141.5v-245q0 -6 1.5 -9t6.5 -5l30 -13l-8 -41h-83q-5 0 -6.5 1t-2.5 7z" />
    <glyph glyph-name="uni0431" unicode="&#x431;" horiz-adv-x="566" 
d="M52 273q0 108 14.5 185.5t47 128.5t83.5 78.5t124 35.5q48 5 92.5 11t72.5 11l-13 -71q-27 -7 -65.5 -10.5t-77.5 -8.5q-49 -6 -82.5 -21t-55 -40.5t-34 -61.5t-18.5 -83q34 32 78.5 48.5t95.5 16.5q107 0 158.5 -61t51.5 -191q0 -132 -55.5 -192t-176.5 -60
q-63 0 -108.5 16t-74.5 50.5t-43 88.5t-14 130zM134 266q0 -56 7.5 -96t25.5 -66.5t48.5 -39t76.5 -12.5q79 0 114.5 43.5t35.5 144.5t-34.5 144.5t-112.5 43.5q-26 0 -49.5 -5.5t-43.5 -14t-36.5 -19t-27.5 -19.5q-2 -19 -3 -42.5t-1 -61.5z" />
    <glyph glyph-name="uni0431.locl" horiz-adv-x="531" 
d="M36 206q0 81 42.5 142.5t128.5 99.5q-30 17 -51 31.5t-33.5 29.5t-18.5 31.5t-6 37.5q0 59 43.5 89.5t140.5 36.5q52 3 99 7.5t79 11.5l-13 -66q-24 -6 -61.5 -9.5t-83.5 -5.5q-70 -4 -98.5 -20.5t-28.5 -49.5q0 -13 6 -23.5t21.5 -22.5t41.5 -25.5t66 -32.5
q51 -24 86.5 -50t57 -57.5t31.5 -69.5t10 -85q0 -108 -54.5 -163t-174.5 -55q-122 0 -176 55.5t-54 162.5zM115 209q0 -78 35 -117.5t116 -39.5q80 0 115 39.5t35 117.5q0 36 -7 65t-24.5 54t-47 47t-75.5 45q-41 -21 -69.5 -43t-45.5 -47.5t-24.5 -55.5t-7.5 -65z" />
    <glyph glyph-name="uni0432" unicode="&#x432;" horiz-adv-x="524" 
d="M74 418q0 6 -1.5 9t-6.5 5l-30 13l8 41h270q78 0 113 -31.5t35 -100.5q0 -80 -63 -102q79 -22 79 -117q0 -72 -36.5 -103.5t-119.5 -31.5h-248v418zM149 57h156q51 0 73 18.5t22 62.5t-22 62.5t-73 18.5h-156v-162zM149 275h148q48 0 68 18t20 59q0 42 -20 59.5t-68 17.5
h-148v-154z" />
    <glyph glyph-name="uni0433" unicode="&#x433;" horiz-adv-x="418" 
d="M74 418q0 6 -1.5 9t-6.5 5l-30 13l8 41h353v-63h-244v-423h-79v418z" />
    <glyph glyph-name="uni0433.locl" horiz-adv-x="464" 
d="M414 358q0 -47 -21.5 -73t-54.5 -40.5t-70.5 -22t-70.5 -17.5t-54.5 -27.5t-21.5 -51.5q0 -40 30 -58t94 -18q84 0 164 27v-65q-77 -24 -170 -24q-94 0 -144.5 33t-50.5 106q0 50 21.5 78.5t54.5 45t70.5 24.5t70.5 17t54.5 23.5t21.5 43.5q0 38 -29 57.5t-91 19.5
q-73 0 -140 -22l-13 62q37 11 76 16.5t81 5.5q91 0 142 -34.5t51 -105.5z" />
    <glyph glyph-name="uni0434" unicode="&#x434;" horiz-adv-x="615" 
d="M21 62h47q21 12 36 32t24 50.5t13 72.5t4 99v102q0 6 -1.5 9t-6.5 5l-30 13l8 41h392v-424h79v-206h-74v144h-417v-144h-74v206zM221 310q0 -52 -3 -91t-9.5 -68.5t-17 -51t-25.5 -37.5h264v361h-209v-113z" />
    <glyph glyph-name="uni0434.locl" horiz-adv-x="563" 
d="M495 486v-507q0 -60 -17 -98.5t-46 -61t-67.5 -31t-81.5 -8.5q-32 0 -61 2.5t-45 5.5v64q26 -4 53 -6t49 -2q136 0 136 121v85q-24 -32 -63 -47t-98 -15q-112 0 -162 60t-50 195t50 195t162 60q51 0 95.5 -13.5t78.5 -39.5l4 41h63zM415 398q-24 14 -63 25t-79 11
q-80 0 -114.5 -44.5t-34.5 -146.5t34.5 -146.5t114.5 -44.5q76 0 109 32t33 107v207z" />
    <glyph glyph-name="uni0435" unicode="&#x435;" horiz-adv-x="523" 
d="M42 243q0 67 13.5 115.5t41.5 79.5t71.5 45.5t104.5 14.5q111 0 160.5 -58.5t49.5 -188.5v-16t-1 -15h-361q3 -91 46.5 -130t141.5 -39q77 0 155 24v-64q-37 -12 -76.5 -17.5t-84.5 -5.5q-137 0 -199 60t-62 195zM273 440q-78 0 -114 -38.5t-38 -126.5h285
q-2 88 -32.5 126.5t-100.5 38.5z" />
    <glyph glyph-name="uni0436" unicode="&#x436;" horiz-adv-x="740" 
d="M333 167l-43 47l-178 -214h-91l218 262l-213 224h91l216 -229v229h73v-229l216 229h92l-213 -224l218 -262h-91l-179 214l-43 -47v-167h-73v167z" />
    <glyph glyph-name="uni0437" unicode="&#x437;" horiz-adv-x="465" 
d="M111 274h91q64 0 93.5 18.5t29.5 63.5t-29.5 63.5t-95.5 18.5q-39 0 -73 -7t-72 -19l-12 61q37 11 79.5 18t86.5 7q103 0 149.5 -32t46.5 -103q0 -46 -17.5 -73.5t-61.5 -38.5q50 -12 72.5 -41.5t22.5 -82.5q0 -73 -50.5 -106t-161.5 -33q-94 0 -170 25v62
q79 -27 161 -27q74 0 107 20t33 66q0 49 -32 67.5t-106 18.5h-91v54z" />
    <glyph glyph-name="uni0438" unicode="&#x438;" horiz-adv-x="570" 
d="M74 418q0 6 -1.5 9t-6.5 5l-30 13l8 41h95q9 0 9 -10v-368l273 378h79v-486h-74v378l-274 -378h-78v418z" />
    <glyph glyph-name="uni0439" unicode="&#x439;" horiz-adv-x="570" 
d="M193 704q0 -51 21.5 -72.5t72.5 -21.5t72.5 21.5t21.5 72.5h58q0 -79 -36 -114t-116 -35t-116 35t-36 114h58zM74 418q0 6 -1.5 9t-6.5 5l-30 13l8 41h95q9 0 9 -10v-368l273 378h79v-486h-74v378l-274 -378h-78v418z" />
    <glyph glyph-name="uni043A" unicode="&#x43a;" horiz-adv-x="493" 
d="M74 418q0 6 -1.5 9t-6.5 5l-30 13l8 41h98q9 0 9 -10v-218l221 228h93l-216 -224l224 -262h-95l-180 211l-47 -47v-164h-77v418z" />
    <glyph glyph-name="uni043B" unicode="&#x43b;" horiz-adv-x="583" 
d="M513 0h-80v423h-210v-113q0 -85 -10 -145.5t-32 -98.5t-57 -56t-84 -18h-8t-11 1v65q5 -1 9.5 -1h5.5q58 0 84 60.5t26 198.5v102q0 6 -1.5 9t-6.5 5l-30 13l8 41h397v-486z" />
    <glyph glyph-name="uni043C" unicode="&#x43c;" horiz-adv-x="634" 
d="M74 418q0 6 -1.5 9t-6.5 5l-30 13l8 41h89q13 0 18.5 -3.5t16.5 -21.5l151 -235l166 260h79v-486h-74v372l-147 -224h-17q-11 0 -18 0.5t-11.5 2.5t-8 6.5t-9.5 13.5l-131 201v-372h-74v418z" />
    <glyph glyph-name="uni043D" unicode="&#x43d;" horiz-adv-x="570" 
d="M74 418q0 6 -1.5 9t-6.5 5l-30 13l8 41h100q9 0 9 -10v-198h267v208h80v-486h-80v216h-267v-216h-79v418z" />
    <glyph glyph-name="uni043E" unicode="&#x43e;" horiz-adv-x="563" 
d="M42 243q0 134 57 194.5t183 60.5t182.5 -60.5t56.5 -194.5q0 -135 -56.5 -195t-182.5 -60t-183 60t-57 195zM124 243q0 -102 37 -146.5t121 -44.5q83 0 120 44.5t37 146.5t-37 146.5t-120 44.5q-84 0 -121 -44.5t-37 -146.5z" />
    <glyph glyph-name="uni043F" unicode="&#x43f;" horiz-adv-x="570" 
d="M74 418q0 6 -1.5 9t-6.5 5l-30 13l8 41h456v-486h-80v423h-267v-423h-79v418z" />
    <glyph glyph-name="uni043F.salt" horiz-adv-x="570" 
d="M500 68q0 -6 1.5 -9t6.5 -5l30 -13l-8 -41h-101q-9 0 -9 10v293q0 71 -28 100t-94 29q-24 0 -46.5 -3.5t-41.5 -9t-33.5 -11.5t-22.5 -12v-396h-80v418q0 6 -1.5 9t-6.5 5l-30 13l8 41h101q9 0 9 -10v-34q26 24 65 40t93 16q101 0 144.5 -45t43.5 -148v-237z" />
    <glyph glyph-name="uni0440" unicode="&#x440;" horiz-adv-x="568" 
d="M74 418q0 6 -1.5 9t-6.5 5l-30 13l8 41h101q9 0 9 -10v-40q23 30 60 46t101 16q111 0 161 -60t50 -195t-50 -195t-161 -60q-60 0 -97.5 15t-63.5 38v-249h-80v626zM296 434q-76 0 -109 -32t-33 -107v-197q24 -19 58.5 -32.5t83.5 -13.5q79 0 113.5 44.5t34.5 146.5
t-34.5 146.5t-113.5 44.5z" />
    <glyph glyph-name="uni0441" unicode="&#x441;" horiz-adv-x="463" 
d="M42 243q0 134 57 194.5t183 60.5q54 0 90.5 -6.5t56.5 -14.5l-13 -62q-21 8 -51 13.5t-72 5.5q-90 0 -129.5 -44.5t-39.5 -146.5t39.5 -146.5t129.5 -44.5q68 0 131 20v-65q-61 -19 -142 -19q-126 0 -183 60t-57 195z" />
    <glyph glyph-name="uni0442" unicode="&#x442;" horiz-adv-x="455" 
d="M188 423h-167v63h413v-63h-166v-423h-80v423z" />
    <glyph glyph-name="uni0442.locl" horiz-adv-x="874" 
d="M453 432q32 30 75.5 48t97.5 18q94 0 136 -42.5t42 -138.5v-249q0 -6 1.5 -9t6.5 -5l30 -13l-8 -41h-101q-9 0 -9 10v304q0 63 -26 90.5t-86 27.5q-46 0 -82.5 -10.5t-58.5 -28.5q5 -17 6.5 -34t1.5 -39v-320h-80v314q0 63 -26 90.5t-86 27.5q-22 0 -42.5 -3.5t-38 -9
t-31.5 -11.5t-21 -12v-396h-80v418q0 6 -1.5 9t-6.5 5l-30 13l8 41h101q9 0 9 -10v-30q26 23 62 37.5t88 14.5q60 0 93.5 -16.5t55.5 -49.5z" />
    <glyph glyph-name="uni0443" unicode="&#x443;" horiz-adv-x="500" 
d="M10 486h87l161 -389l139 389h85l-208 -554q-16 -43 -33 -72t-39 -47t-49.5 -25.5t-64.5 -7.5h-16.5t-16.5 2v62q7 -1 14.5 -1h12.5q23 0 40.5 5t31.5 16.5t25 31t22 48.5l19 53z" />
    <glyph glyph-name="uni0444" unicode="&#x444;" horiz-adv-x="695" 
d="M112 243q0 -98 47 -142t153 -48v379q-106 -3 -153 -47.5t-47 -141.5zM583 243q0 97 -47 141.5t-152 47.5v-379q104 4 151.5 48t47.5 142zM384 496q144 -5 209.5 -66t65.5 -187q0 -127 -65.5 -188t-209.5 -66v-129q0 -6 1.5 -9t6.5 -5l30 -13l-8 -41h-93q-9 0 -9 10v187
q-145 5 -210.5 66t-65.5 188q0 126 65.5 187t210.5 66v140q0 6 -1.5 9t-6.5 5l-30 13l8 41h93q9 0 9 -10v-198z" />
    <glyph glyph-name="uni0445" unicode="&#x445;" horiz-adv-x="500" 
d="M201 247l-168 239h86l131 -189l132 189h85l-168 -239l174 -247h-88l-135 196l-138 -196h-85z" />
    <glyph glyph-name="uni0446" unicode="&#x446;" horiz-adv-x="605" 
d="M71 418q0 6 -1.5 9t-6.5 5l-30 13l8 41h100q9 0 9 -10v-414h267v424h80v-424h79v-206h-74v144h-431v418z" />
    <glyph glyph-name="uni0447" unicode="&#x447;" horiz-adv-x="535" 
d="M129 363q0 -62 30 -88.5t101 -26.5q33 0 64 5t61 13v220h80v-486h-80v205q-34 -10 -68.5 -15.5t-71.5 -5.5q-104 0 -150 41t-46 132v61q0 6 -1.5 9t-6.5 5l-30 13l8 41h101q9 0 9 -10v-113z" />
    <glyph glyph-name="uni0448" unicode="&#x448;" horiz-adv-x="842" 
d="M74 418q0 6 -1.5 9t-6.5 5l-30 13l8 41h100q9 0 9 -10v-414h230v424h80v-424h229v424h80v-486h-698v418z" />
    <glyph glyph-name="uni0449" unicode="&#x449;" horiz-adv-x="880" 
d="M74 418q0 6 -1.5 9t-6.5 5l-30 13l8 41h100q9 0 9 -10v-414h230v424h80v-424h229v424h80v-424h79v-206h-74v144h-703v418z" />
    <glyph glyph-name="uni044A" unicode="&#x44a;" horiz-adv-x="609" 
d="M182 423h-161v63h238v-182h141q92 0 132.5 -35.5t40.5 -116.5t-40.5 -116.5t-132.5 -35.5h-218v423zM259 60h129q57 0 82 20.5t25 71.5q0 50 -25 71t-82 21h-129v-184z" />
    <glyph glyph-name="uni044B" unicode="&#x44b;" horiz-adv-x="727" 
d="M656 0h-79v418q0 6 -1.5 9t-6.5 5l-30 13l8 41h100q9 0 9 -10v-476zM74 418q0 6 -1.5 9t-6.5 5l-30 13l8 41h98q9 0 9 -10v-172h145q92 0 133 -35.5t41 -116.5t-41 -116.5t-133 -35.5h-222v418zM151 60h134q57 0 81.5 21t24.5 71t-24.5 71t-81.5 21h-134v-184z" />
    <glyph glyph-name="uni044C" unicode="&#x44c;" horiz-adv-x="506" 
d="M74 418q0 6 -1.5 9t-6.5 5l-30 13l8 41h98q9 0 9 -10v-172h145q92 0 133 -35.5t41 -116.5t-41 -116.5t-133 -35.5h-222v418zM151 60h134q57 0 81.5 21t24.5 71t-24.5 71t-81.5 21h-134v-184z" />
    <glyph glyph-name="uni044D" unicode="&#x44d;" horiz-adv-x="463" 
d="M87 275h251q-6 86 -45 124t-123 38q-34 0 -60.5 -5t-57.5 -15l-13 62q61 19 143 19q126 0 182.5 -62.5t56.5 -192.5q0 -128 -56.5 -191.5t-182.5 -63.5q-82 0 -143 19v62q63 -20 131 -20q85 0 124.5 39.5t44.5 130.5h-252v56z" />
    <glyph glyph-name="uni044E" unicode="&#x44e;" horiz-adv-x="773" 
d="M74 418q0 6 -1.5 9t-6.5 5l-30 13l8 41h98q9 0 9 -10v-198h119q7 116 62 168t168 52q121 0 176 -60.5t55 -194.5q0 -135 -55 -195t-176 -60q-115 0 -170 54t-60 174h-119v-216h-77v418zM347 243q0 -102 35.5 -146.5t117.5 -44.5q81 0 116.5 44.5t35.5 146.5t-35.5 146.5
t-116.5 44.5q-82 0 -117.5 -44.5t-35.5 -146.5z" />
    <glyph glyph-name="uni044F" unicode="&#x44f;" horiz-adv-x="519" 
d="M449 0h-76v190h-134l-115 -190h-85l125 199q-112 16 -112 139q0 78 41 113t132 35h224v-486zM373 426h-140q-56 0 -80 -20t-24 -68t24 -68.5t80 -20.5h140v177z" />
    <glyph glyph-name="uni0450" unicode="&#x450;" horiz-adv-x="529" 
d="M42 243q0 67 13.5 115.5t41.5 79.5t71.5 45.5t104.5 14.5q111 0 160.5 -58.5t49.5 -188.5v-16t-1 -15h-361q3 -91 46.5 -130t141.5 -39q77 0 155 24v-64q-37 -12 -76.5 -17.5t-84.5 -5.5q-137 0 -199 60t-62 195zM273 440q-78 0 -114 -38.5t-38 -126.5h285
q-2 88 -32.5 126.5t-100.5 38.5zM116 704h87l121 -140h-74z" />
    <glyph glyph-name="uni0451" unicode="&#x451;" horiz-adv-x="529" 
d="M42 243q0 67 13.5 115.5t41.5 79.5t71.5 45.5t104.5 14.5q111 0 160.5 -58.5t49.5 -188.5v-16t-1 -15h-361q3 -91 46.5 -130t141.5 -39q77 0 155 24v-64q-37 -12 -76.5 -17.5t-84.5 -5.5q-137 0 -199 60t-62 195zM273 440q-78 0 -114 -38.5t-38 -126.5h285
q-2 88 -32.5 126.5t-100.5 38.5zM322 634q0 26 12 37.5t39 11.5q50 0 50 -49t-50 -49q-27 0 -39 11.5t-12 37.5zM123 634q0 49 50 49q27 0 39 -11.5t12 -37.5t-12 -37.5t-39 -11.5q-50 0 -50 49z" />
    <glyph glyph-name="uni0452" unicode="&#x452;" horiz-adv-x="562" 
d="M497 -62q0 -84 -38.5 -121t-124.5 -37q-45 0 -84 9v64q17 -4 35 -6.5t37 -2.5q51 0 73 22.5t22 74.5v362q0 71 -28 100t-94 29q-24 0 -46.5 -3.5t-41.5 -9t-33.5 -11.5t-22.5 -12v-396h-80v559h-66v54h66v23q0 6 -1.5 9t-6.5 5l-30 13l8 41h101q9 0 9 -10v-81h177v-54
h-177v-117q26 24 65 40t93 16q101 0 144.5 -45t43.5 -148v-367z" />
    <glyph glyph-name="uni0453" unicode="&#x453;" horiz-adv-x="418" 
d="M74 418q0 6 -1.5 9t-6.5 5l-30 13l8 41h353v-63h-244v-423h-79v418zM251 564h-74l121 140h87z" />
    <glyph glyph-name="uni0454" unicode="&#x454;" horiz-adv-x="463" 
d="M376 219h-252q5 -91 44.5 -130.5t124.5 -39.5q68 0 131 20v-62q-61 -19 -142 -19q-126 0 -183 62.5t-57 192.5q0 128 57 191.5t183 63.5q40 0 79 -5t68 -16l-13 -62q-19 7 -50 13.5t-73 6.5q-84 0 -123 -37t-45 -123h251v-56z" />
    <glyph glyph-name="uni0455" unicode="&#x455;" horiz-adv-x="465" 
d="M50 358q0 71 51 105.5t142 34.5q42 0 81 -5.5t76 -16.5l-13 -62q-67 22 -140 22q-62 0 -91 -19.5t-29 -57.5q0 -30 21.5 -44.5t54.5 -23t70.5 -15.5t70.5 -22.5t54.5 -42.5t21.5 -76q0 -73 -50.5 -110t-144.5 -37t-170 24v65q79 -27 164 -27q64 0 94 22t30 62
q0 33 -21.5 49t-54.5 25t-70.5 15.5t-70.5 20.5t-54.5 40t-21.5 74z" />
    <glyph glyph-name="uni0456" unicode="&#x456;" horiz-adv-x="230" 
d="M49 486h101q9 0 9 -10v-476h-80v418q0 6 -1.5 9t-6.5 5l-30 13zM65 634q0 27 12 39t40 12q27 0 39.5 -12t12.5 -39q0 -50 -52 -50q-28 0 -40 12t-12 38z" />
    <glyph glyph-name="uni0457" unicode="&#x457;" horiz-adv-x="230" 
d="M49 486h101q9 0 9 -10v-476h-80v418q0 6 -1.5 9t-6.5 5l-30 13zM158 634q0 26 12 37.5t39 11.5q50 0 50 -49t-50 -49q-27 0 -39 11.5t-12 37.5zM-41 634q0 49 50 49q27 0 39 -11.5t12 -37.5t-12 -37.5t-39 -11.5q-50 0 -50 49z" />
    <glyph glyph-name="uni0458" unicode="&#x458;" horiz-adv-x="230" 
d="M159 -54q0 -75 -35 -119t-117 -44h-22t-23 2v62q9 -1 17 -1h13q52 0 69.5 25t17.5 75v472q0 6 -1.5 9t-6.5 5l-30 13l8 41h101q9 0 9 -10v-530zM65 634q0 27 12 39t40 12q27 0 39.5 -12t12.5 -39q0 -50 -52 -50q-28 0 -40 12t-12 38z" />
    <glyph glyph-name="uni0459" unicode="&#x459;" horiz-adv-x="849" 
d="M502 60h126q57 0 82 21t25 71t-25 71t-82 21h-126v-184zM502 486v-182h138q92 0 132.5 -35.5t40.5 -116.5t-40.5 -116.5t-132.5 -35.5h-215v423h-202v-113q0 -85 -10 -145.5t-32 -98.5t-57 -56t-84 -18h-8t-11 1v65q5 -1 9.5 -1h5.5q58 0 84 60.5t26 198.5v102
q0 6 -1.5 9t-6.5 5l-30 13l8 41h386z" />
    <glyph glyph-name="uni045A" unicode="&#x45a;" horiz-adv-x="836" 
d="M489 57h133q54 0 77 20t23 66t-23 65.5t-77 19.5h-133v-171zM151 285h261v201h77v-201h149q86 0 124 -33.5t38 -108.5t-38 -109t-124 -34h-226v223h-261v-223h-77v418q0 6 -1.5 9t-6.5 5l-30 13l8 41h98q9 0 9 -10v-191z" />
    <glyph glyph-name="uni045B" unicode="&#x45b;" horiz-adv-x="567" 
d="M151 442q26 24 65 40t93 16q101 0 144.5 -45t43.5 -148v-237q0 -6 1.5 -9t6.5 -5l30 -13l-8 -41h-101q-9 0 -9 10v293q0 71 -28 100t-94 29q-24 0 -46.5 -3.5t-41.5 -9t-33.5 -11.5t-22.5 -12v-396h-80v559h-66v54h66v23q0 6 -1.5 9t-6.5 5l-30 13l8 41h101q9 0 9 -10
v-81h177v-54h-177v-117z" />
    <glyph glyph-name="uni045C" unicode="&#x45c;" horiz-adv-x="483" 
d="M74 418q0 6 -1.5 9t-6.5 5l-30 13l8 41h98q9 0 9 -10v-218l221 228h93l-216 -224l224 -262h-95l-180 211l-47 -47v-164h-77v418zM263 564h-74l121 140h87z" />
    <glyph glyph-name="uni045D" unicode="&#x45d;" horiz-adv-x="570" 
d="M74 418q0 6 -1.5 9t-6.5 5l-30 13l8 41h95q9 0 9 -10v-368l273 378h79v-486h-74v378l-274 -378h-78v418zM132 704h87l121 -140h-74z" />
    <glyph glyph-name="uni045E" unicode="&#x45e;" horiz-adv-x="500" 
d="M10 486h87l161 -389l139 389h85l-208 -554q-16 -43 -33 -72t-39 -47t-49.5 -25.5t-64.5 -7.5h-16.5t-16.5 2v62q7 -1 14.5 -1h12.5q23 0 40.5 5t31.5 16.5t25 31t22 48.5l19 53zM161 704q0 -51 21.5 -72.5t72.5 -21.5t72.5 21.5t21.5 72.5h58q0 -79 -36 -114t-116 -35
t-116 35t-36 114h58z" />
    <glyph glyph-name="uni045F" unicode="&#x45f;" horiz-adv-x="570" 
d="M420 62v424h80v-486h-176v-144h-74v144h-176v418q0 6 -1.5 9t-6.5 5l-30 13l8 41h100q9 0 9 -10v-414h267z" />
    <glyph glyph-name="uni0491" unicode="&#x491;" horiz-adv-x="418" 
d="M74 418q0 6 -1.5 9t-6.5 5l-30 13l8 41h279v144h74v-207h-244v-423h-79v418z" />
    <glyph glyph-name="uni0493" unicode="&#x493;" horiz-adv-x="434" 
d="M90 418q0 6 -1.5 9t-6.5 5l-30 13l8 41h353v-63h-244v-168h140v-57h-140v-198h-79v198h-82v57h82v163z" />
    <glyph glyph-name="uni04D9" unicode="&#x4d9;" horiz-adv-x="525" 
d="M483 243q0 -135 -54.5 -195t-176.5 -60q-56 0 -95.5 14t-65 44t-37.5 77t-12 112q0 8 0.5 15.5t0.5 15.5h362q-2 45 -11.5 77t-30.5 52.5t-54 30t-82 9.5q-39 0 -78.5 -7.5t-69.5 -18.5l-14 62q76 27 168 27q69 0 116.5 -14.5t77 -45.5t43 -79.5t13.5 -115.5zM252 46
q78 0 114 39t39 127h-286q1 -89 32 -127.5t101 -38.5z" />
    <glyph glyph-name="uni049B" unicode="&#x49b;" horiz-adv-x="534" 
d="M366 486h93l-211 -224l164 -200h109v-206h-74v144h-75l-174 212l-47 -48v-164h-77v418q0 6 -1.5 9t-6.5 5l-30 13l8 41h98q9 0 9 -10v-216z" />
    <glyph glyph-name="uni04A3" unicode="&#x4a3;" horiz-adv-x="608" 
d="M74 418q0 6 -1.5 9t-6.5 5l-30 13l8 41h100q9 0 9 -10v-198h267v208h80v-424h79v-206h-74v144h-85v216h-267v-216h-79v418z" />
    <glyph glyph-name="uni04AF" unicode="&#x4af;" horiz-adv-x="509" 
d="M215 -11l-192 497h84l148 -405l147 405h84l-192 -497v-197h-79v197z" />
    <glyph glyph-name="uni04B1" unicode="&#x4b1;" horiz-adv-x="517" 
d="M219 -14h-144v56h125l-173 444h84l148 -405l147 405h84l-173 -444h135v-56h-154v-194h-79v194z" />
    <glyph glyph-name="uni04BB" unicode="&#x4bb;" horiz-adv-x="564" 
d="M306 498q101 0 144.5 -45t43.5 -148v-237q0 -6 1.5 -9t6.5 -5l30 -13l-8 -41h-101q-9 0 -9 10v293q0 71 -28 100t-94 29q-24 0 -46.5 -3.5t-41.5 -9t-33.5 -11.5t-22.5 -12v-396h-80v636q0 6 -1.5 9t-6.5 5l-30 13l8 41h101q9 0 9 -10v-252q26 24 65 40t93 16z" />
    <glyph glyph-name="uni04E9" unicode="&#x4e9;" horiz-adv-x="563" 
d="M42 243q0 134 57 194.5t183 60.5t182.5 -60.5t56.5 -194.5q0 -135 -56.5 -195t-182.5 -60t-183 60t-57 195zM282 46q83 0 121.5 40t43.5 131h-331q5 -91 43.5 -131t122.5 -40zM282 440q-82 0 -121.5 -39t-44.5 -128h331q-5 89 -44 128t-121 39z" />
    </font>
</defs>
</svg>
