<?xml version="1.0" standalone="no"?>
<!DOCTYPE svg PUBLIC "-//W3C//DTD SVG 1.1//EN" "http://www.w3.org/Graphics/SVG/1.1/DTD/svg11.dtd">
<svg xmlns="http://www.w3.org/2000/svg">
<metadata>Copyright (C) 2020 by original authors @ fontello.com</metadata>
<defs>
<font id="video" horiz-adv-x="1000" >
<font-face font-family="video" font-weight="400" font-stretch="normal" units-per-em="1000" ascent="850" descent="-150" />
<missing-glyph horiz-adv-x="1000" />
<glyph glyph-name="aislamiento" unicode="&#xe800;" d="M278 644h-200c-3 0-5 3-5 5v37c0 4-6 6-9 3l-58-58c-2-2-2-5 0-7l58-58c3-3 9-1 9 3v36c0 3 2 5 5 5h200c3 0 5 3 5 5v24c0 3-2 5-5 5z m0-270h-200c-3 0-5 3-5 6v36c0 4-6 7-9 3l-58-58c-2-2-2-5 0-7l58-58c3-4 9-1 9 3v36c0 3 2 5 5 5h200c3 0 5 3 5 5v24c0 3-2 5-5 5z m0-269h-200c-3 0-5 2-5 5v36c0 4-6 7-9 3l-58-58c-2-2-2-5 0-7l58-58c3-3 9-1 9 3v36c0 3 2 6 5 6h200c3 0 5 2 5 5v23c0 3-2 6-5 6z m52 638v-786h666v786h-666z m505-39v-709h-339v709h339z m-466 0h88v-709h-88v709z m588-708h-83v708h83v-708z m-385 644h59c10 0 19 8 19 19 0 11-9 20-19 20h-59c-11 0-20-9-20-20 0-11 9-19 20-19z m0-201h59c10 0 19 9 19 19s-9 20-19 20h-59c-11 0-20-9-20-20s9-19 20-19z m0-201h59c10 0 19 9 19 19 0 11-9 20-19 20h-59c-11 0-20-9-20-20 0-10 9-19 20-19z m59-162h-59c-11 0-20-9-20-20s9-19 20-19h59c10 0 19 9 19 19s-9 20-19 20z m63 484h58c11 0 20 8 20 19s-9 19-20 19h-58c-11 0-20-8-20-19s9-19 20-19z m0-201h58c11 0 20 8 20 19 0 11-9 20-20 20h-58c-11 0-20-9-20-20 0-11 9-19 20-19z m0-201h58c11 0 20 8 20 19 0 11-9 20-20 20h-58c-11 0-20-9-20-20 0-11 9-19 20-19z" horiz-adv-x="1000" />

<glyph glyph-name="archivo" unicode="&#xe801;" d="M602 206h-204c-15 0-27-13-27-28v-62c0-16 12-28 27-28h203c16 0 28 12 28 28v62c0 15-12 28-27 28z m-8-83h-188v47h188l0-47 0 0z m358 237l0 0-134 265c-11 22-32 35-56 35h-26v24c0 10-8 18-17 18h-437c-10 0-18-8-18-18v-24h-25c-24 0-46-14-57-35l-134-265 0 0c-5-9-9-20-9-32v-280c0-35 28-63 63-63h796c35 0 63 28 63 63v280c0 12-4 23-9 32z m-216 260h26c9 0 17-5 21-13l109-217h-74v67c0 10-8 18-18 18h-22v96c0 10-8 17-18 17h-24l0 32 0 0z m46-181v-49h-94c-16 0-31-9-38-24l-26-57c0-1-1-1-1-1h-246c-1 0-1 0-2 1l-25 57c-7 15-22 24-38 24h-94v49h564l0 0z m-483 227h401v-77h-401v77z m443-113v-78h-484v78h484l0 0z m-525 54c4 8 12 13 21 13h26v-31h-24c-10 0-18-8-18-18v-96h-22c-10 0-18-8-18-18v-67h-74l109 217z m681-582h-796c-13 0-23 11-23 23v280c0 12 10 23 23 23h210c1 0 1-1 2-1l25-57c7-15 22-25 38-25h246c17 0 31 10 38 25l26 57 0 0c0 0 1 1 1 1h210c13 0 23-11 23-23v-280l0 0c0-13-10-23-23-23z" horiz-adv-x="1000" />

<glyph glyph-name="backoffice" unicode="&#xe802;" d="M202 97c-35 0-62-28-62-62 0-34 27-62 62-62s62 28 62 62c0 34-28 62-62 62z m0-88c-15 0-27 12-27 26 0 14 12 26 27 26 14 0 26-12 26-26 0-14-12-26-26-26z m27 622h-55c-11 0-17-9-17-18s6-18 17-18h55c11 0 17 9 17 18s-6 18-17 18z m0-80h-55c-11 0-17-9-17-18 0-9 6-18 17-18h55c11 0 17 9 17 18 0 9-6 18-17 18z m-128 145v-439c0-10 8-18 18-18h165c10 0 18 8 18 18v439c0 10-8 18-18 18h-165c-10 1-18-8-18-18z m36-18h129v-291h-129v291z m0-327h129v-76h-129v76z m483-254c-34 0-62-28-62-62 0-34 28-62 62-62 35 0 62 28 62 62 1 34-27 62-62 62z m0-88c-14 0-26 12-26 26 0 14 12 26 26 26 15 0 27-12 27-26 0-14-12-26-27-26z m-259-144h-319c-15 0-26 12-26 27v914c0 16 12 29 28 29h315c16 0 29-13 29-29v-914c0-15-12-27-27-27z m-281 38h243c15 0 27 12 27 26v840c0 15-13 28-28 28h-241c-15 0-28-13-28-28v-840c0-14 12-26 27-26z m392 733v137c0 13 11 24 24 24h249c13 0 24-11 24-24v-71c13-6 25-13 37-22v131c0 13-10 24-23 24h-325c-13 0-24-11-24-24v-235c10 21 22 41 38 60z m297-395v-311c0-15-12-27-27-27h-243c-15 0-27 12-27 27v379c-15 18-28 38-38 60v-477c0-15 12-27 27-27h319c15 0 26 12 26 27v311l-37 38z m41 377c-80 80-211 80-292 0-80-80-80-211 0-291 72-72 183-79 263-24 2-8 6-15 12-22l117-116c17-17 45-17 62 0 17 16 17 44 0 61l-117 117c-6 6-14 10-22 12 56 80 48 192-23 263z m-37-254c-60-60-158-60-217 0s-60 157 0 217 157 60 217 0c60-60 60-158 0-217z" horiz-adv-x="1000" />

<glyph glyph-name="bomba_agua" unicode="&#xe803;" d="M809 442c-1 2-2 4-3 5-20 32-38 54-39 55l-2 2-3 4-4-4-2-2c-1-1-22-27-43-61-28-47-43-86-43-116 0-50 41-91 91-91s92 41 92 91c0 31-15 70-44 116 0 0 0 1 0 1z m30-117c0-43-35-77-77-77-8 0-15 1-22 3 0 0 94 39 87 127 7-18 12-37 12-53z m-307 169h-320c-40 0-72-32-72-71v-113c0-39 32-71 72-71h320c39 0 71 32 71 71v113c0 39-32 71-71 71z m43-184c0-24-19-43-43-43h-320c-24 0-44 19-44 43v113c0 24 20 43 44 43h320c24 0 43-19 43-43v-113z m222 296v45h-58v51h-244v-51h-58v-35h-164c-137 0-249-111-249-248v-32c0-128 98-234 223-247v-91h120v90h282v-90h121v93c117 21 206 123 206 245v32c0 113-76 208-179 238z m-461-576h-58v57h58v-57z m402 0h-57v57h46c5 0 6 1 12 1v-58z m202 306c0-117-96-213-213-213h-454c-117 0-213 96-213 213v32c0 117 96 213 213 213h454c118 0 213-96 213-213v-32z" horiz-adv-x="1000" />

<glyph glyph-name="bomba-vacio" unicode="&#xe804;" d="M444 317h58c-5 11-8 22-12 33h-46v-33z m0-23v-33h90c-8 10-15 21-21 33h-69z m0-90h146c-13 10-25 21-36 33h-110v-33z m327-110h-395v367h108c1 10 3 20 6 29h-114v32h-104v62h-31v51h-103v-51h-31v-62h-57c-27 0-48-22-48-48v-394c0-26 22-48 48-48h327v32h394c83 0 150 66 153 147-10-8-21-16-33-23-13-54-62-94-120-94z m-424 396l0 0 0-426h0v-2h-297c-10 0-18 8-18 18v394c0 10 8 18 18 18h297v-2z m406 178c-136 0-246-111-246-246s110-245 246-245c135 0 245 110 245 245s-110 246-245 246z m0-460c-118 0-214 96-214 214s95 214 214 214 214-96 214-214-96-214-214-214z m146 339l-22 22-90-90c-10 6-22 9-35 9-36 0-66-29-66-66 0-36 30-66 66-66 37 0 67 30 67 66 0 13-4 24-10 34l90 91z m-146-159c-20 0-35 15-35 34 0 19 16 35 35 35 19 0 34-16 34-35 0-19-15-34-34-34z" horiz-adv-x="1000" />

<glyph glyph-name="cable-carga" unicode="&#xe805;" d="M397 520c0 39-32 70-71 70s-70-31-70-70 32-70 70-70 71 31 71 70z m-111 0c0 23 18 41 40 41s41-18 41-41c0-22-18-41-41-41s-40 19-40 41z m144 0c0-39 31-70 70-70s70 31 70 70-31 70-70 70-70-31-70-70z m70 41c23 0 41-19 41-41 0-22-18-41-41-41-22 0-41 19-41 41 0 23 19 41 41 41z m103-41c0-39 32-70 71-70 39 0 70 31 70 70s-32 70-70 70c-39 0-71-31-71-70z m71 41c22 0 41-19 41-41 0-22-19-41-41-41-23 0-41 19-41 41 0 23 18 41 41 41z m-261-120c-39 0-70-31-70-70s31-70 70-70 70 31 70 70-31 70-70 70z m0-111c-22 0-41 19-41 41s19 41 41 41c23 0 41-18 41-41s-18-41-41-41z m174 111c-39 0-70-31-70-70s31-70 70-70c39 0 70 31 70 70s-31 70-70 70z m0-111c-22 0-41 19-41 41s19 41 41 41c22 0 41-18 41-41s-19-41-41-41z m-174 279c27 0 48 21 48 48s-21 48-48 48-48-22-48-48 22-48 48-48z m0 76c16 0 29-12 29-28s-13-29-29-29-28 13-28 29 13 28 28 28z m174-76c27 0 48 21 48 48s-21 48-48 48c-27 0-48-22-48-48s21-48 48-48z m0 76c16 0 28-12 28-28s-12-29-28-29-29 13-29 29 13 28 29 28z m226-165c0 103-51 200-137 259l-3 2h-345l-4-2c-86-59-137-156-137-259 0-51 13-101 36-146 9-27 23-69 45-132 0 0 49-122 90-122 28 0 128 0 141 0 0 0 1 0 1 0 13 0 113 0 141 0 41 0 90 122 90 122 21 59 34 100 43 127 25 46 39 97 39 151z m-476 231h326c75-53 120-139 120-231 0-75-29-147-83-200-6-6-12-12-19-17-14-12-29-23-45-31-42-23-88-35-136-35-49 0-95 12-137 35-17 9-33 21-48 34-5 4-10 9-15 14-54 53-83 125-83 200 0 92 45 178 120 231z m286-661h-246c-11 0-19-9-19-20l44-132c0-10 9-19 20-19h157c10 0 19 9 19 19l44 132c0 11-8 20-19 20z" horiz-adv-x="1000" />

<glyph glyph-name="candadoabierto" unicode="&#xe806;" d="M797 359h-297v2c-59 0-117 0-177-2 0 83-6 166 2 247 8 85 88 144 172 141 83-3 156-67 162-153 0-10 2-19 2-27h98c0 2 0 3 0 3 0 144-89 252-229 277-146 26-300-94-308-242-3-69-2-139-2-208 0-11 0-22 0-34-51-4-87-25-100-77-3-11-3-22-3-33 0-95 2-190 0-286-1-56 19-95 72-117 208 0 414 0 622 0 36 14 61 41 70 78 0 117 0 236 0 355-14 45-42 72-84 76z" horiz-adv-x="1000" />

<glyph glyph-name="catapulta" unicode="&#xe807;" d="M953 234h-32l-43 54-37 44-151 186c0 1 0 1 0 1v91c0 23-19 42-43 43h-33c-11 0-22-5-30-13-8-8-12-19-12-30v-5h-12c-21 0-38-17-38-39v-71c0-21 17-38 38-38h12v-81l-156 83c28 61 3 133-56 164-61 32-136 10-169-49l-2 0c-5 0-11-1-17-4-12-6-20-17-22-30-10-59 19-117 72-145 20-11 43-17 66-17 21 0 43 5 63 15l135-72h-246c-9 0-18-2-26-6l-2 5-11 29-6 15c-8 22-29 36-53 36-23 0-44-14-52-36l-6-15-11-29-33-86c-19-3-33-20-33-40v-45c0-22 18-41 40-41h25 2c20-36 59-61 104-61 44 0 83 25 103 61h79 59 152 1c20-36 59-61 104-61 45 0 83 25 104 61h1 172c22 0 41 19 41 41v44c0 23-19 41-41 41z m-393 252l0 0c-5 0-9 4-9 9v72c0 5 4 9 9 9h12v-90h-12z m-214 111c45-24 64-78 44-124l-21 11-149 80c27 42 81 57 126 33z m12-175c-2 1-5 2-7 2-3 0-5-1-7-2-18-10-37-15-56-15-18 0-36 4-52 13-42 22-65 69-57 115 0 4 3 7 6 9 2 1 4 1 6 1 2 0 3 0 5-1l376-201v-22h-25l-189 101z m-294-222c-3-9-9-30-3-62h-14v0c-6 0-12 5-12 11v45c0 6 5 11 12 11h19c-1-1-1-3-2-5z m7 34l46 119c5 13 16 18 26 18s21-5 25-18l23-59c-2-4-3-7-5-10-3 0-6 0-9 0-40 0-75-20-97-50h-9z m195-90l-3-12-6-10c-16-30-47-48-80-48s-64 18-80 48l-8 13h0l-2 7c-5 26 0 43 2 49l0 0 0 1c1 1 1 3 1 4l5 12 7 10c18 25 46 39 75 39 3 0 5 0 7 0l12-1 11-4c18-6 34-18 45-34l7-10 5-12c3-10 5-20 5-30 0-8-1-15-3-22z m292 7c0-4 1-9 2-13h-141-60-67c2 9 4 18 4 28 0 14-3 27-7 39h275c-5-12-7-25-7-39 0-5 0-10 1-15z m-284 83c-14 20-34 36-58 44 4 8 14 14 24 14h346c8 0 14 6 14 14v304c0 4 3 14 14 14l33-1c8 0 14-6 14-13v-327c-34-4-63-22-82-49h-305z m492-83v0 0c-1-3-1-5-1-7l-3-10-6-12c-16-29-47-47-80-47s-64 18-80 47l-7 12-2 10c-1 3-2 6-2 10v0 1c-1 3-1 7-1 11 0 10 2 20 5 30l4 12 7 10c15 22 39 35 64 38l12 2 12-2c25-3 48-17 63-38l7-10 4-12c3-10 5-20 5-30 0-5-1-10-1-15z m7 82c-19 27-48 46-82 50l-1 109v81l129-159 36-45 29-35-111-1z m192-84c0-6-5-12-12-12h-162c0 3 1 6 1 10 1 6 2 12 2 19 0 13-2 27-7 39l24 0h142c7 0 12-5 12-12v-44z" horiz-adv-x="1000" />

<glyph glyph-name="cargaelectrico" unicode="&#xe808;" d="M917 714h-110v58h-145v-58h-110c-20 0-36-16-36-36v-655l-124-37c-1 0-28-5-41 1-15 6-24 18-26 34-1 11-1 22-1 34 0 17 1 33-4 50-6 18-16 34-30 48-16 15-34 27-54 35-1 1-2 1-2 1 1 10 3 19 3 28 0 7-2 14-3 21-1 4-3 7-7 9-12 6-24 13-36 20-4 2-7 4-12 3 1 2 3 5 4 7 3 5 1 10-4 13-6 4-13 8-19 11-5 3-10 1-13-4-3-7-7-13-10-20-15 9-30 17-46 26-4 3-9 2-13-2-3-4-4-10-1-14 1-2 3-3 5-4 14-8 28-16 42-23 1-1 2-1 3-2-7-13-13-25-20-38-1 0-2 1-3 2-14 7-28 15-42 23-5 3-12 1-15-4-3-6 0-13 5-16 15-8 30-16 45-25-3-6-6-13-9-19-1-2-2-4-2-6 0-3 2-6 5-8 7-3 13-7 20-11 4-2 9-1 12 4 2 3 3 7 6 12 1-6 4-8 7-10 12-7 25-13 37-20 4-3 8-3 13-1 15 6 27 15 37 28 12-4 24-10 34-18 14-10 26-21 35-36 9-16 11-33 11-51-1-12-2-25-1-38 2-24 11-43 32-56 16-9 33-12 51-9 4 0 8 1 12 3 0 0 0 0 0 0 0 0 1 0 1 0l117 35v-36c0-19 16-35 36-35h365c20 0 36 16 36 35v715c1 20-15 36-35 36z m-17-610h-331v145h331v-145z m0 181h-331v145h331v-145z m0 182h-331v145h331v-145z" horiz-adv-x="1000" />

<glyph glyph-name="ccr1" unicode="&#xe809;" d="M276-18h-121c-43 0-78 36-78 78v640c0 42 35 77 78 77h446c42 0 78-35 78-77v-224c0-17 14-31 31-31 17 0 31 14 31 31v224c0 77-62 140-140 140h-446c-78 0-141-63-141-140v-640c0-78 63-140 141-140h121c17 0 31 14 31 31 0 17-14 31-31 31z m583 445c-10 14-30 18-43 9l-361-244v-276c0-17 14-31 30-31 8 0 16 3 22 9 5 5 8 13 7 20l0 245 336 224c14 11 18 31 9 44z m-83-235h-62l-64-118c-6-9-6-20 0-28l64-119h62l64 118c6 9 6 20 0 28l-64 119z m-30-224l-50 92 50 92 49-92-49-92z m-514 719c6 0 14 0 19-1 6-1 11-2 16-4l5-2 5 32-4 1c-4 1-9 2-18 4-7 2-17 2-27 2-13 0-24-1-33-4-10-3-18-8-24-14-6-7-11-16-14-26-3-10-4-21-4-34 0-13 1-25 4-34 3-10 7-19 14-26 6-6 14-11 24-14 9-3 20-4 33-4 8 0 15 0 23 1 7 1 14 2 21 4l4 1v34l-6-2c-12-3-26-5-37-5-15 0-25 3-32 10-6 7-9 19-9 35 0 16 3 28 10 35 4 7 15 11 30 11z m146 0c6 0 13 0 18-1 6-1 11-2 16-4l5-2 5 32-4 1c-4 1-9 2-18 4-6 2-16 2-26 2-13 0-24-1-34-4-10-3-18-8-24-14-6-7-11-16-14-26-3-10-4-21-4-34 0-13 1-25 4-34 3-10 7-19 14-26 6-6 14-11 24-14 10-3 21-4 34-4 8 0 15 0 22 1 7 1 14 2 21 4l4 1v34l-6-2c-12-3-25-5-36-5-15 0-25 3-32 10-7 7-10 19-10 35 0 16 3 28 11 35 5 7 16 11 30 11z m174-63l3 1c7 3 12 7 16 12 6 7 8 18 8 31 0 17-5 30-14 38v0c-9 8-24 12-43 12h-74l-5-20 12-5v-126h38v54h19l31-54h43l-34 57z m-58 61h26c8 0 14-1 17-4 3-2 4-7 4-14 0-7-1-11-4-14-3-3-9-4-17-4h-26v36z m78-232h-387c-14 0-25 11-25 25v0c0 14 11 26 25 26h387c14 0 25-12 25-26v0c0-14-12-25-25-25z" horiz-adv-x="919" />

<glyph glyph-name="cinturon" unicode="&#xe80a;" d="M776 495c58-1 108 48 108 107 0 59-49 108-108 107-59 0-107-48-107-108 1-58 49-106 107-106z m0 167c33 0 62-29 61-62-1-32-30-60-62-59-32 0-59 28-59 60 0 33 28 60 60 61z m-716-129c5-2 10-2 17-1 8 3 14 8 16 14 3 5 1 11 1 13-14 58-28 115-56 117-6 1-15 0-20-7-4-5-2-12-2-16 6-26 9-40 33-106 2-3 4-10 11-14z m891 16c-37-20-74-40-110-60-11-7-15-18-8-31 7-11 18-17 30-10 38 21 76 39 112 62 6 4 10 11 10 18l0 0c0 8-4 15-11 19-7 4-14 7-23 2z m-195-72c-42 11-85-11-106-54-28-61-56-122-85-183-2-6-3-14-12-17-5 15-10 30-16 44-6 14-17 19-31 14-14-5-18-16-13-30 4-11 8-22 13-38-8 3-11 5-15 6-46 22-93 44-140 65-36 17-76 10-98-20-64-84-127-169-189-255-30-43-8-100 43-115 33-11 63 1 87 33 44 58 88 117 131 176 10 14 17 15 32 8 72-34 145-68 217-100 9-4 12-10 14-17 10-27 20-55 30-82 5-14 14-26 31-20 18 6 20 21 14 36-8 23-15 45-25 66-7 15-6 23 10 31 13 5 22 17 28 30 47 101 96 201 141 302 22 50-8 107-61 120z m-396-316c-37 17-37 17-61-15-47-63-94-127-142-190-14-19-30-23-46-12-15 10-17 30-3 49 58 78 117 155 174 233 15 19 31 23 51 14 62-29 124-58 185-86 6-3 12-5 14-12 8-23 17-46 27-74-69 32-134 62-199 93z m224-13c-2 5-2 10 0 15l27 64c0 0 55 119 83 178 11 22 32 32 52 26 19-6 32-23 32-42 0-10-5-18-9-27-42-91-85-182-127-274-1-2-2-4-3-6-3-5-6-11-9-15-5-5-12-3-15 2l-31 79z m-265 662c-109 0-197-88-197-197 0-108 88-197 197-197s196 89 196 197c0 109-88 197-196 197z m0-346c-83 0-150 67-150 149 0 83 67 150 150 150s149-67 149-150c0-82-67-149-149-149z" horiz-adv-x="1000" />

<glyph glyph-name="datostaller" unicode="&#xe80b;" d="M878 33c15 0 28 12 28 28 0 15-13 27-28 27h-450c0 0-43-42-107-55h557z m77 335h-300c-3-19-8-37-15-55h315c15 0 28 12 28 27-1 16-13 28-28 28z m-421-195h387v0c15 0 27 12 27 27 0 16-12 28-27 28h-329c-8-9-15-17-24-26-10-11-22-20-34-29z m-32 361c0 0 0 0 0 0 0 0 0 0 0 0z m96-112c0-66-26-129-73-176-47-47-110-73-177-73-30 0-60 5-88 16-2 1-5 0-7-2l-158-158c-2-2-4-2-6 0l-42 43c-2 1-2 4 0 6l193 193c1 2 3 2 5 1l20-10c27-14 56-21 87-21 99 2 178 82 178 181 0 11-1 21-3 32-1 2-4 3-6 1l-103-103c-2-1-4-1-6 0l-138 138c-1 2-1 4 0 6l101 100c2 2 0 6-2 6-8 1-16 2-23 2-101 0-183-81-183-181 0-28 6-55 19-80l9-19c1-2 1-4-1-5l-84-85c-1 0-2-1-3-1h-85c-4 0-6 5-3 7l92 92c2 2 3 5 2 8-10 26-14 54-14 82 0 67 26 130 73 177s110 73 176 73c39 0 76-8 110-25l26-13c8-4 10-15 4-22l-115-114c-2-3-2-7 0-10l37-37c3-3 7-3 10 0l115 115c6 7 18 5 22-3l13-25c18-35 28-75 28-116z" horiz-adv-x="1000" />

<glyph glyph-name="direccion-asistida" unicode="&#xe80c;" d="M856 126c0 22 5 38 16 48 10 10 26 15 50 15 24 0 41-5 51-15 10-9 15-26 15-48 0-23-5-40-15-50-10-10-27-15-51-15-23 0-40 5-50 15-11 10-16 27-16 50z m12 513h109l-5-389h-99l-5 389z m-192-14c-73 73-171 114-275 114s-202-40-275-114-114-171-114-275 40-202 114-275 171-114 275-114 202 40 275 114c73 73 114 171 114 275s-41 202-114 275z m-275-633c-197 0-358 161-358 358s161 358 358 358 358-160 358-358-161-358-358-358z m0 681c-178 0-323-145-323-323s145-323 323-323 323 145 323 323-145 323-323 323z m39-554h-77c-30 97-103 176-198 211l26 113c68 17 139 25 210 25s142-8 210-25l27-113c-96-35-169-114-198-211z m-331 231c0 25 3 49 8 72 14 4 27 8 40 12l-23-95c-8 3-17 4-26 6 1 2 1 3 1 5z m558-11l-22 95c13-4 26-8 39-12 6-23 9-47 9-72 0-2 0-3 0-5-9-2-17-4-26-6z m-266 303c123 0 228-76 272-184-15 5-30 9-45 13-74 19-150 28-227 28s-153-9-227-28c-15-4-30-8-44-13 43 108 148 184 271 184z m-290-329c122-25 216-125 232-249-122 24-216 125-232 249z m263-254c-1 10-2 20-4 29h62c-2-9-3-19-4-29-9-1-18-1-27-1-9 0-18 0-27 1z m85 5c16 124 110 224 232 249-16-124-110-225-232-249z m-58 374c-49 0-88-39-88-88s39-88 88-88c49 0 88 39 88 88s-39 88-88 88z m0-145c-32 0-57 25-57 57 0 32 25 57 57 57s57-25 57-57c0-32-25-57-57-57z" horiz-adv-x="1000" />

<glyph glyph-name="elevadores" unicode="&#xe80d;" d="M367 527c4-9 16-8 20 0 1 3 2 6 2 8 1 27 0 55 0 85 0 10 12 14 19 8 3-3 6-6 8-8 65-64 129-129 194-193 1-1 2-2 4-3 9-5 20 5 15 15-1 1-2 3-4 5-65 67-132 133-198 199-2 2-2 2-3 4-7 7-2 18 8 18 35 0 68-1 100 0 2 0 3 0 4 1 11 4 10 20-1 21-1 0-2 1-2 1-48 1-97-1-145 1-20 0-24-9-24-26 0-43 0-86 1-129 0-3 1-5 2-7z m568-411h-224l-301 301c-11 11-26 16-40 15-1 0-1 0-2 0h-302c-28 0-52-23-52-52 0-28 24-52 52-52h286l297-297c3-3 7-6 10-8 9-7 20-11 32-11h244c28 0 52 23 52 51v2c-1 28-24 51-52 51z" horiz-adv-x="1000" />

<glyph glyph-name="elevadoresconf" unicode="&#xe80e;" d="M937 112h-225l-303 303c-11 10-25 15-39 14-1 0-2 1-3 1h-303c-28 0-52-24-52-53 0-28 24-52 52-52h287l299-299c3-3 6-5 10-7 9-7 20-12 31-12h246c28 0 51 24 51 52v2c0 28-23 51-51 51z m-176 413v58l-47 7c-3 11-8 22-13 32l28 38-40 41-39-29c-10 6-20 10-32 13l-6 48h-58l-7-48c-11-3-22-7-32-13l-38 29-41-41 29-38c-6-10-10-21-13-32l-48-7v-58l48-6c3-12 7-22 13-32l-29-39 40-40 39 28c9-5 20-10 31-13l7-47h58l7 47c11 3 22 8 32 13l38-28 41 40-29 39c6 10 11 20 14 32l47 6z m-106 29c0-39-33-72-73-72s-72 33-72 72 33 72 72 72 73-32 73-72z" horiz-adv-x="1000" />

<glyph glyph-name="elevalunas-radio" unicode="&#xe80f;" d="M405 248c-8 3-14 8-19 12h-324c-15 0-27 12-27 27v128h377l80 154c1 4 3 7 5 9h-254c-10 0-20-3-28-10l-142-119h-38v8c0 8 4 16 10 21l153 127c4 4 10 6 17 6h300c8 0 15-3 20-9 2 0 3 1 5 1l33 3c-9 24-32 40-58 40h-300c-15 0-29-5-40-14l-153-127c-14-12-22-29-22-48v-170c0-34 28-62 62-62h386l-43 23z m236 194c-45 24-100 6-123-38-23-45-5-99 38-122 45-23 100-6 123 38 23 44 6 100-38 122z m-68-127c-27 14-36 47-21 73 14 26 46 36 72 22 27-13 37-47 22-75-14-26-47-35-73-20z m322-3c-19 9-37 19-56 29-20 10-39 20-58 30-12 6-23 4-28-7-5-11-1-19 10-25 39-20 77-40 117-60 11-6 22-4 27 7 5 9 0 20-12 26z m-32-65c-20 10-39 19-58 30-20 10-39 20-58 30-11 5-20 4-27-6-6-9-3-20 9-26 39-20 77-40 117-60 11-6 23-3 27 7 5 11 1 19-10 25z m-34-65c-38 20-76 39-113 59-13 6-25 5-28-7-6-12 0-20 11-25 19-10 38-20 57-29 19-10 37-20 56-30 13-6 25-4 28 7 5 12 0 20-11 25z m144 171c-119 62-238 123-357 184-4 2-8 4-12 6 0 1 0 2 0 3 5 1 10 1 15 2 71 7 143 14 213 20 10 1 19 2 23 12 5 14-6 26-24 23-96-9-193-18-289-27-13-1-21-7-27-19-39-76-78-152-117-227-14-27-8-45 19-59 136-70 272-140 408-210 27-14 45-8 58 19 37 71 73 141 109 211 15 30 9 48-19 62z m-120-252c-5-9-9-9-17-4-66 34-133 68-199 102-66 34-130 67-196 101-10 5-13 8-7 20 35 67 70 134 103 200 5 10 9 13 20 7 131-69 263-136 395-204 9-4 12-8 6-18-36-67-71-135-105-204z" horiz-adv-x="1000" />

<glyph glyph-name="entradataller" unicode="&#xe810;" d="M211 496c34-1 67 16 85 46l238-8c16-31 47-51 81-52 1 0 2 0 4 0 24 0 47 9 65 25 8 9 15 18 21 29 2 4 1 9-1 12-2 4-6 7-11 7l-68 2 2 39 68-3 0 0c5 0 9 3 11 6 3 3 4 8 2 12l0 1c-13 35-47 58-84 59-35 2-68-16-85-46l-239 9c-16 30-46 50-81 51-38 2-73-20-89-53-2-4-2-9 0-13 2-4 6-6 11-6l68-3-2-38-68 2c-5 0-9-2-11-6-3-3-3-8-2-12 14-35 47-59 85-60z m22 61l3 66c0 3-1 6-3 9-2 3-6 4-10 4l-57 2c14 14 33 22 52 21 27-1 51-18 61-43 2-5 6-9 11-9l256-9c5 0 10 3 12 8 12 23 36 39 62 39 1 0 2 0 3 0 19-1 37-10 49-25l-57 2 0 0c-8 0-14-5-14-12l-3-66c0-3 1-7 4-9 2-3 5-4 9-4l57-2c-13-14-32-22-52-21-27 1-51 18-60 43-2 5-7 8-12 9l-255 9c-1 0-1 0-1 0-3 0-7-2-9-4-1-1-2-2-3-4-12-24-37-39-64-38-20 0-38 9-50 24l57-2 1 0c7 0 13 5 13 12z m184-330h-40c-8 0-16-7-16-16s8-16 16-16h40c9 0 16 7 16 16s-7 16-16 16z m254 71l0 0c-5 3-11 6-16 10l-85 57c-27 18-57 28-89 28h-157c-42 0-82-17-112-47-15-15-32-27-51-37-12-6-19-18-19-32 0-20 16-36 36-36h492c12 0 22 10 22 22 0 14-8 28-21 35z m-315 63v-89h-178c-3 0-5 2-5 5 0 2 1 3 3 4 21 11 41 26 58 43 24 24 56 37 90 37h32z m296-89h-264v89h93c25 0 50-8 71-22l85-57c5-4 11-7 15-10z m290-23c-28 28-58 31-93 35-28 3-60 7-101 25-20 9-59 36-94 59-31 20-59 39-74 47-25 12-49 17-62 19-12 2-25 4-37 4h-157c-53 0-102-21-140-58-23-23-52-39-84-45l-18-4c-29-6-50-32-50-62v-125c0-16 9-30 24-37l50-22c4-17 12-33 24-45 17-16 39-25 63-25 23 0 46 9 63 25 10 10 17 23 22 37h242l2 0c24-1 55-1 93-1 10 0 21 0 32 0 11-36 46-62 84-62 39 0 74 26 85 63 59 1 99 2 111 3 10 0 24 6 33 30 15 39 9 112-18 139z m-211-88c32 0 58-26 58-58 0-31-26-57-58-57s-58 25-58 57c0 32 26 58 58 58z m200-40c-3-7-5-9-6-10-11-1-49-1-105-2-3 47-41 83-89 83-47 0-86-37-89-84-49 0-90 0-119 0v1h-242c-1 18-8 36-20 50l0 0c0 1-1 2-2 3v0l-1 1c0 0-1 1-1 1-1 1-1 1-1 2-5 4-10 8-14 11-15 10-32 15-49 15-23 0-46-10-63-26-1-1-2-2-3-3l0 0c0-1 0-1-1-1 0-1 0-1-1-2l-1-1 0 0c0 0 0 0-1-1l-1-2c0 0 0 0 0 0l-1-1c-1-2-2-4-4-6h0l-1-1c0-1 0-1-1-2 0 0 0-1 0-2l-1 0v0c-4-8-7-16-8-24l-37 16c-3 2-5 5-5 8v125c0 15 10 28 24 31l19 4c38 8 72 26 99 53 32 32 74 49 118 49h157c9 0 18-1 27-2l11-2c12-2 29-7 47-15 13-7 41-25 70-45 38-25 77-51 99-61 45-21 82-25 111-28 31-4 54-6 74-26 16-16 22-75 11-106z m-790 6l1 0v0c0 1 0 1 0 1 0 1 0 1 0 1l1 0c0 1 0 1 0 2 0 0 0 0 1 0 0 0 0 0 0 1l1 1c0 0 0 0 0 1 0 0 0 0 0 0l1 0 0 1c0 0 0 0 1 1 0 0 0 0 0 0 1 1 1 2 1 2 0 0 1 1 1 1 0 0 0 0 0 0 0 1 1 1 1 1 1 1 1 1 1 2 1 0 1 0 1 0 0 1 1 1 1 1l2 3c1 0 1 0 1 0 0 1 0 1 0 1 1 0 1 0 1 0 0 1 1 1 1 1 21 16 50 16 71 0 1-1 1-1 1-1 0 0 1-1 1-1l1-1c0 0 1-1 1-1l3-3c0 0 0 0 0 0 0-1 0-1 1-1 0 0 0 0 0 0 0-1 1-1 1-1 0 0 0-1 0-1 1 0 1 0 1-1l0 0c0 0 0 0 0 0 0 0 0 0 1-1 0 0 0 0 0-1 0 0 0 0 0 0l1-1c15-22 12-53-7-71-11-11-25-17-40-17-15 0-30 6-40 17-18 17-22 42-13 64z" horiz-adv-x="1000" />

<glyph glyph-name="envio" unicode="&#xe811;" d="M985 812c-4 4-11 5-16 2l-950-441c-5-3-8-8-8-13 0-6 3-11 8-13l272-128c6-3 11-2 16 1l257 192-165-237c-2-2-4-7-4-11l21-266c0-6 4-11 10-13 2 0 3-1 5-1 4 0 8 2 11 5l142 165 176-84c4-1 8-1 12 0 4 2 7 5 8 9l208 818c3 5 1 11-3 15z" horiz-adv-x="1000" />

<glyph glyph-name="etiqueta-mantenimiento" unicode="&#xe812;" d="M299 266c0 0 0 0 0 0-1 1-1 3-1 4-1 0-1 0-1 0 0 1-1 2-1 3 0 0 0 0 0 0-1 1-1 2-2 3 0 0 0 1-1 1 0 1-1 1-1 2 0 0 0 1-1 1 0 1-1 1-1 2 0 0-1 1-1 2-1 0-1 0-1 1-1 1-2 2-3 3l0 0c-15 14-34 22-54 22-1 0-1 0-1 0-21 1-40-8-55-22l-1-1c-14-15-22-35-22-55 1-20 9-40 24-54 14-14 34-22 55-22 0 0 1 0 2 0 21 1 40 10 53 25 0 0 0 0 0 0 0 0 0 0 0 0 1 0 1 0 1 1 1 0 1 1 2 1 0 1 0 1 1 1 0 1 0 1 1 2 0 0 0 1 0 1 1 1 1 1 2 2 0 0 0 1 0 1 1 1 1 1 2 2 0 0 0 1 0 1 1 1 1 2 1 2 1 1 1 1 1 1 0 1 1 2 1 3 0 0 0 0 0 0 1 1 1 2 1 3 0 0 1 0 1 1 0 1 0 1 1 2 0 1 0 1 0 1 0 1 0 2 1 3 0 0 0 0 0 0 0 1 0 2 1 3 0 0 0 1 0 1 0 1 0 2 1 3 0 0 0 0 0 0 0 3 0 5 1 7 0 0 0 0 0 0 0 3 0 5 0 8 0 0 0 0 0 0 1 10-1 22-5 32 0 0 0 0 0 0 0 1-1 2-1 3z m-107-30c1 9 5 17 11 24 1 1 2 2 3 2 0 0 0 1 0 1 1 1 2 1 3 2 0 0 1 0 1 0 1 1 2 1 2 2 1 0 2 0 2 0 1 1 1 1 2 1 0 0 1 1 1 1 1 0 2 0 2 0 1 1 1 1 2 1 1 0 1 0 2 0 0 0 1 0 1 0 1 0 2 1 2 1 1 0 1 0 2 0 1 0 1 0 2 0 0 0 1 0 2 0 0 0 1 0 1 0 1 0 2 0 2 0 1 0 1-1 2-1 0 0 1 0 2 0 0 0 1 0 1 0 1-1 2-1 2-1 1 0 1 0 2 0 0-1 1-1 2-1 0 0 1-1 1-1 1 0 1-1 2-1 0 0 1 0 1-1 1 0 1-1 2-1 0 0 1 0 1-1 1-1 2-1 3-2 0-1 1-2 2-3 11-15 10-38-2-51l0 0c-6-6-15-10-25-11-10 0-20 4-27 11l-1 0c-7 7-11 16-11 26 0 1 0 2 0 3z m624-173c-1 26-1 53-1 80l0 2-14 10-2-1c-7-3-14-6-21-8l-2-1-1-5 0 0c1-27 1-53 1-77 0-7-1-10-1-11-1 0-4-1-11-1l-1 0c-57 0-114 0-170 0-112 0-227 0-340 0-7 0-17 5-23 10l0 0c-27 27-54 54-81 80-26 27-53 54-81 81-7 7-8 10-8 11 0 0 1 3 7 9 20 18 38 36 55 55l0 0c9 9 18 18 26 26l3 3 0 0c2 2 4 4 6 7 14 16 57 66 82 77 23 10 53 8 84 6 15-1 30-2 44-2l4 0 0 40-4 0c-13 0-27 0-41 1-35 2-71 5-102-8l0 0c-30-13-68-54-97-89-2-2-4-4-5-5l-2-2c-9-9-18-18-26-27-17-18-35-36-53-52l-1 0c-8-8-20-21-20-38 0-18 11-31 20-40l0 0c28-27 55-54 81-81 27-26 54-53 81-80 13-12 33-21 51-21 50 0 106 0 170 0 57 0 113 0 169 0l1 0c55 0 113 0 170 0 13 0 28 1 40 12 11 11 13 27 13 39l0 0z m87 403c-4 12-9 24-15 36l-1 2 46 62-76 76-61-46-3 1c-11 6-23 11-36 15l-2 1-11 76h-107l-12-76-2-1c-12-4-25-9-36-15l-2-1-62 46-76-76 46-62-1-2c-6-11-11-23-15-36l-1-2-76-12v-107l76-11 1-3c4-12 9-24 15-35l1-3-46-62 76-75 61 46 3-2c11-5 23-10 36-14l2-1 11-76h108l11 76 2 1c13 4 25 8 36 14l3 2 61-46 76 75-46 62 1 2c6 12 11 24 15 36l1 3 76 11v107l-76 11-1 3z m37-86l-68-10-3-14c-5-19-13-37-23-54l-7-12 41-55-26-27-56 42-11-7c-17-11-35-18-55-23l-13-3-10-68h-38l-10 68-13 3c-19 4-38 12-54 22l-12 7-55-41-27 27 41 55-7 12c-10 17-18 35-22 54l-3 14-69 10v38l69 10 3 13c4 19 12 38 22 54l7 12-41 55 27 27 55-41 12 7c17 10 35 17 54 22l14 3 10 68h37l10-68 13-3c20-4 38-12 55-22l11-7 55 41 27-27-41-55 7-12c10-17 18-35 22-54l4-14 68-10v-37z m-250 162c-79 0-144-64-144-144s65-143 144-143c79 0 144 64 144 143s-65 144-144 144z m0-247c-57 0-104 46-104 103s47 104 104 104c57 0 104-46 104-104s-47-103-104-103z" horiz-adv-x="1000" />

<glyph glyph-name="etiqueta-seguridad" unicode="&#xe813;" d="M690 111l-10 4c-65 29-121 76-161 136-40 61-62 131-63 202l0 0v111l22 3c102 16 166 64 195 92l17 17 18-17c29-28 93-76 195-92l22-3 0-111c-1-71-23-141-63-202-40-60-96-107-161-136l-11-4z m-183 343c1-62 20-122 54-174 33-50 78-89 129-114 52 26 97 65 129 114 35 52 54 112 55 174v67c-87 18-148 56-184 86-35-30-96-68-183-86v-67z m-152-175c0 0 0 0-1 0 0 1-1 2-1 3 0 1 0 1 0 1-1 1-1 2-2 3 0 0 0 0 0 0 0 1-1 2-1 3-1 0-1 1-1 1-1 1-1 1-1 2-1 0-1 1-1 1-1 1-1 1-1 2-1 0-1 1-2 2 0 0-1 0-1 1-1 1-1 2-2 2l-1 1c-14 14-34 22-54 22 0 0 0 0-1 0-20 0-40-8-55-23l0 0c-15-16-22-35-22-55 0-21 9-40 24-54 14-14 34-22 54-22 1 0 2 0 3 0 21 1 40 9 53 24 0 0 0 0 0 0 0 0 0 0 0 0 0 0 0 1 1 1 0 1 1 1 1 2 0 0 1 1 1 1 0 1 1 1 1 1 1 1 1 1 1 2 0 0 1 1 1 1 0 1 1 1 1 2 0 0 1 1 1 2 0 0 0 0 1 1 0 0 0 1 1 2 0 0 0 0 0 1 1 1 1 1 1 2 1 0 1 1 1 1 0 1 1 2 1 3 0 0 0 0 0 0 1 1 1 2 1 3 0 0 0 0 0 0 1 1 1 2 1 3 0 0 0 1 0 1 1 1 1 2 1 3 0 0 0 0 0 0 0 1 1 2 1 3 0 1 0 1 0 1 0 2 1 4 1 7 0 0 0 0 0 0 0 2 1 4 1 7 0 0 0 0 0 0 0 11-2 22-5 32 0 0-1 0-1 1 1 1 0 2 0 3z m-107-30c0 8 4 17 10 24 1 0 2 1 3 2 0 0 1 0 1 0 1 1 2 2 3 2 0 1 0 1 1 1 0 1 1 1 2 1 0 1 1 1 1 1 1 0 2 1 2 1 1 0 1 0 2 0 0 1 1 1 2 1 0 0 1 0 1 0 1 1 2 1 2 1 1 0 1 0 2 0 1 0 1 0 2 0 0 0 1 0 1 0 1 0 2 0 2 0 1 0 2 0 2 0 1 0 1 0 2 0 0 0 1 0 2 0 0 0 1 0 1 0 1 0 2 0 2 0 1-1 1-1 2-1 0 0 1 0 2 0 0-1 1-1 1-1 1 0 1 0 2 0 0-1 1-1 1-1 1 0 2-1 2-1 1 0 1-1 2-1 0 0 1-1 1-1 1-1 1-1 1-1 1-1 2-2 3-3 1-1 2-1 3-2 10-15 10-38-2-51l-1 0c-5-7-14-11-24-11-11 0-21 3-28 10l0 1c-8 7-12 16-12 26 1 1 1 2 1 3z m583-96c0-28 0-53 1-77 0-7-1-10-1-11-2 0-5-1-12-1l0 0c-57 0-115 0-171 0-111 0-227 0-340 0-7 0-17 4-22 10l0 0c-28 26-55 53-81 80-27 26-54 54-82 81-7 7-8 10-8 11 0 0 1 3 8 9 19 17 37 36 55 54l0 0c8 9 17 18 26 27l2 3 0 0c2 2 4 4 6 6 14 17 57 67 83 78 23 9 52 7 84 5 14-1 29-2 44-1l4 0 0 39-5 0c-13 0-26 1-41 2-34 2-70 5-101-8l-1-1c-30-12-68-54-97-88-2-2-4-4-5-6l-1-1c-9-9-18-18-27-27-17-18-34-36-53-53l0 0c-9-8-20-20-21-37 0-18 12-32 20-40l1-1c27-26 54-54 81-80 26-27 54-54 81-80 13-13 33-22 50-22 51 0 107 0 171 0 56 0 113 0 169 0l0 0c56 0 114 0 170 0 13 0 29 1 40 12 12 12 13 27 13 40l0 0-2 120c-5-14-38-43-38-43z" horiz-adv-x="1000" />

<glyph glyph-name="filtro-aceite" unicode="&#xe814;" d="M526 796c0 12-10 22-22 22h-7c-13 0-23-10-23-22v-93h52v93z m168-169c0 33-26 59-59 59h-270c-32 0-59-26-59-59l0 0h388l0 0z m34-18h-456c-32 0-59-26-59-59h574c0 33-26 59-59 59z m-254-705c0-12 10-22 22-22h8c12 0 22 10 22 22v93h-52v-93z m-109 110h270c33 0 59 26 59 59h-388c0-33 27-59 59-59z m-152 136c0-33 27-59 59-59h456c33 0 59 26 59 59l0 0h-574l0 0z m574 373v4h-573v-2h0v-350h0v0h0v-2h573v4h0l0 346 0 0z m-533-346v346h36v-346h-36z m76 0v346h36v-346h-36z m76 0v346h37v-346h-37z m76 0v346h37v-346h-37z m77 0v346h36v-346h-36z m76 0v346h36v-346h-36z m113 0h-37v346h37v-346z" horiz-adv-x="1000" />

<glyph glyph-name="filtro" unicode="&#xe815;" d="M184 821l107-67c2-1 1-4-1-5l-106-16c-3-1-3-5 0-5l629-98c5-1 6 7 1 8l-628 187c-3 1-4-3-2-4z m0-122l107-60c2-1 1-4-1-5l-106-23c-3-1-3-5 0-5l629-57c5-1 7 7 2 8l-629 147c-3 0-5-4-2-5z m0-122l107-53c2-1 2-4-1-5l-106-30c-3-1-2-5 1-5l629-16c5-1 6 7 1 8l-630 106c-3 0-4-4-1-5z m-1-122l108-46c2-1 2-4-1-5l-106-37c-3-1-2-5 1-5l630 24c5 0 5 8 0 8l-630 66c-3 0-4-4-2-5z m0-122l108-39c2-1 2-4 0-5l-107-44c-3-1-2-5 1-5l630 65c5 1 5 8 0 9l-631 24c-3 0-3-4-1-5z m0-122l107-32c3 0 3-4 1-5l-107-51c-2-1-1-6 2-5l629 106c5 1 4 8-1 8l-630-16c-3 0-3-4-1-5z m0-122l107-25c3 0 3-4 1-5l-107-58c-2-1-1-5 2-5l629 147c5 1 4 9-1 8l-630-57c-3 0-3-4-1-5z m1-122l106-18c2 0 3-4 1-5l-106-65c-3-1-1-5 2-4l628 187c4 1 3 9-2 8l-629-98c-3 0-3-4 0-5z" horiz-adv-x="1000" />

<glyph glyph-name="landing" unicode="&#xe816;" d="M169 801c-11 0-20-9-20-19s9-20 20-20 20 9 20 20-9 19-20 19z m68 0c-10 0-19-9-19-19s9-20 19-20 20 9 20 20-9 19-20 19z m69 0c-11 0-20-9-20-19s9-20 20-20 19 9 19 20-9 19-19 19z m-204-897c0-30 24-54 53-54h690c29 0 53 24 53 54v892c0 30-24 54-53 54h-690c-29 0-53-24-53-54v-892z m29 479h247c6-17 22-29 41-29h162c19 0 35 12 42 29h246v-479c0-14-11-25-24-25h-690c-13 0-24 11-24 25v479z m450 0h-162c-8 0-15 7-15 15s7 15 15 15h162c8 0 15-7 15-15s-7-15-15-15z m288 30h-246c-7 17-23 29-42 29h-162c-19 0-35-12-41-29h-247v300h684c8 0 15 7 15 15s-7 15-15 15h-684v53c0 14 11 25 24 25h690c13 0 24-11 24-25v-383z m-487 228c0 8-7 15-15 15h-109c-8 0-15-7-15-15s7-15 15-15h109c8 0 15 7 15 15z m44-15h148c8 0 15 7 15 15s-7 15-15 15h-148c-8 0-15-7-15-15s7-15 15-15z m316 30h-109c-8 0-15-7-15-15s7-15 15-15h109c8 0 15 7 15 15s-7 15-15 15z m-257-81c0 8-6 14-14 14h-139c-8 0-15-6-15-14s7-15 15-15h139c8 0 14 7 14 15z m183 14h-139c-8 0-14-6-14-14s6-15 14-15h139c8 0 15 7 15 15s-7 14-15 14z m-64-70h-198c-8 0-14-7-14-15s6-14 14-14h198c8 0 14 6 14 14s-6 15-14 15z m-325-193c-44 0-80-36-80-80s36-81 80-81 80 36 80 81-36 80-80 80z m0-131c-28 0-50 23-50 51s22 50 50 50 51-23 51-50-23-51-51-51z m-50-59c-8 0-15-6-15-14s7-15 15-15h101c8 0 15 7 15 15s-7 14-15 14h-101z m271 190c-44 0-80-36-80-80s36-81 80-81 80 36 80 81-36 80-80 80z m0-131c-28 0-51 23-51 51s23 50 51 50 51-23 51-50-23-51-51-51z m65-73c0 8-6 14-14 14h-102c-8 0-14-6-14-14s6-15 14-15h102c8 0 14 7 14 15z m156 204c-44 0-80-36-80-80s36-81 80-81 80 36 80 81-36 80-80 80z m0-131c-28 0-51 23-51 51s23 50 51 50 51-23 51-50-23-51-51-51z m-51-59c-8 0-15-6-15-14s7-15 15-15h102c8 0 14 7 14 15s-6 14-14 14h-102z m-473-203c0-14 11-24 25-24h228c14 0 25 10 25 24v111c0 14-11 25-25 25h-228c-14 0-25-11-25-25v-111z m106 5l23 23c5 6 15 6 20 0l23-23h-66z m-76 102h218v-102h-34l-44 44c-17 17-45 17-62 0l-44-44h-34v102z m298 4v-111c0-14 11-24 25-24h228c14 0 25 10 25 24v111c0 14-11 25-25 25h-228c-14 0-25-11-25-25z m106-106l23 23c5 6 15 6 20 0l24-23h-67z m-76 102h218v-102h-34l-44 44c-17 17-45 17-62 0l-44-44h-34v102z" horiz-adv-x="1000" />

<glyph glyph-name="logor" unicode="&#xe817;" d="M751 566c-39 69-80 138-122 206-6 11-13 22-29 23-61 4-123 2-185 1-23 0-37-11-49-30-76-126-149-253-214-385-11-21-11-40 0-62 50-102 105-200 163-298 19-31 38-62 57-94 8-14 19-23 38-22 29 0 59-3 90-2 30-1 62 2 93 2 15 0 26 6 33 19 11 18 22 35 33 53 68 113 132 227 190 345 10 20 10 38 0 58-32 62-64 125-98 186z m-155-234c-29-63-60-125-92-187-6-10-7-1-9 3-14 24-27 49-39 74-18 37-35 75-53 112-5 11-5 22 1 33 7 15 13 31 20 46 23 45 45 90 68 135 2 4 2 12 8 11 6 0 5-8 8-11 2-2 3-4 4-5 20-41 40-82 60-124 8-17 15-35 24-52 6-12 5-23 0-35z" horiz-adv-x="1000" />

<glyph glyph-name="landingccr" unicode="&#xe818;" d="M169 801c-11 0-20-9-20-19s9-20 20-20 20 9 20 20-9 19-20 19z m68 0c-10 0-19-9-19-19s9-20 19-20 20 9 20 20-9 19-20 19z m69 0c-11 0-20-9-20-19s9-20 20-20 19 9 19 20-9 19-19 19z m-204-897c0-30 24-54 53-54h690c29 0 53 24 53 54v892c0 30-24 54-53 54h-690c-29 0-53-24-53-54v-892z m767 479v-479c0-14-11-25-24-25h-690c-13 0-24 11-24 25v479 30 300h684c8 0 15 7 15 15s-7 15-15 15h-684v53c0 14 11 25 24 25h690c13 0 24-11 24-25v-383-30z m-487-15c0 8-7 14-15 14h-109c-8 0-15-6-15-14 0-8 7-15 15-15h109c8 0 15 7 15 15z m44-15h148c8 0 15 7 15 15 0 8-7 14-15 14h-148c-8 0-15-6-15-14 0-8 7-15 15-15z m316 29h-109c-8 0-15-6-15-14 0-8 7-15 15-15h109c8 0 15 7 15 15 0 8-7 14-15 14z m-360-80c0 8-7 15-15 15h-109c-8 0-15-7-15-15s7-14 15-14h109c8 0 15 6 15 14z m44-14h148c8 0 15 6 15 14s-7 15-15 15h-148c-8 0-15-7-15-15s7-14 15-14z m316 29h-109c-8 0-15-7-15-15s7-14 15-14h109c8 0 15 6 15 14s-7 15-15 15z m-360-80c0 8-7 14-15 14h-109c-8 0-15-6-15-14s7-15 15-15h109c8 0 15 7 15 15z m44-15h148c8 0 15 7 15 15s-7 14-15 14h-148c-8 0-15-6-15-14s7-15 15-15z m316 29h-109c-8 0-15-6-15-14s7-15 15-15h109c8 0 15 7 15 15s-7 14-15 14z m-424 256c5-6 13-10 22-13 8-3 18-4 30-4 7 0 14 0 21 1 6 1 13 2 19 4l4 1v30l-6-2c-12-3-23-5-34-5-13 0-23 4-29 10-6 6-9 17-9 32 0 16 3 27 9 33 6 6 16 9 29 9 7 0 12 0 17-1 6-1 10-2 15-3l5-1 5 28-4 1c-3 1-9 2-16 4-7 1-16 1-26 1-11 0-22-1-30-4-9-2-17-7-22-13-6-6-10-13-13-22-2-9-4-20-4-32s2-23 4-32c3-8 7-16 13-22z m133 0c6-6 13-10 22-13 9-3 19-4 31-4 7 0 14 0 20 1 7 1 13 2 20 4l3 1v30l-6-2c-11-3-22-5-33-5-14 0-24 4-29 10-6 6-9 17-9 32 0 16 3 27 9 33 5 6 15 9 29 9 6 0 12 0 17-1 5-1 10-2 15-3l4-1 5 28-3 1c-4 1-9 2-17 4-7 1-16 1-25 1-12 0-22-1-31-4-9-2-16-7-22-13-6-6-10-13-12-22-3-9-4-20-4-32s1-23 4-32c2-8 7-16 12-22z m128-15h35v49h17l29-49h39l-33 53 3 1c6 2 11 6 15 11 5 7 8 16 8 28 0 16-4 27-13 35l0 0c-8 7-21 10-39 10h-68l-3-19 10-4v-115z m35 110h24c7 0 13-2 15-4 3-2 4-6 4-13s-1-10-4-12c-3-3-8-4-15-4h-24v33z m70-655h-359c-20 0-36 17-36 37v0c0 21 16 37 36 37h360c20 0 37-16 37-37v0c-1-20-17-37-38-37z" horiz-adv-x="1000" />

<glyph glyph-name="logoc" unicode="&#xe819;" d="M859 143c2-27 8-51 25-72 14-16 30-24 51-22 27 2 47 16 64 35 43 47 62 104 67 167 2 32 1 63-16 92-12 22-30 34-53 35-14-40-28-78-42-118-21 19-41 38-62 58-7-13-12-23-17-33-1-3-2-8-1-11 14-20 29-39 45-60 0 2 0 3 1 5 6 26 26 43 45 38 3 0 6-2 8-3-21 1-42-16-49-41-3-14-2-28 4-39-5 6-9 15-10 24-18-22-37-46-55-68-2 6-3 10-5 13z m129-36l-5-6-2 63c0 0 7 4 13 14 6 10 6 19 6 19l34-3c-7-34-46-87-46-87z m36 249c20-9 30-61 25-109-15-1-38-2-38-2s-14-1-20 0c11 37 22 74 33 111z m-32-150c0 4-1 9-2 13 3-5 4-12 4-18 0-19-11-34-25-34-1 0-1 0-2 1 14 2 25 18 25 38z m-52-49c3-6 6-9 6-13 4-18 7-37 9-55 0-3-2-8-4-9-22-14-60-2-71 21 19 18 39 37 60 56z m642 376c-24 14-50 26-76 34-98 29-199 38-301 42-90 4-181 3-271-5-4-1-10 2-12 6-18 31-13 65 14 89 11 10 25 18 40 24 56 23 114 26 173 15 73-14 135-49 194-91 14-10 28-21 42-31 1 1 2 2 2 3-9 7-17 15-27 22-23 17-47 34-71 51-83 58-176 79-276 72-39-3-76-16-103-47-31-32-36-90-12-124 8-10 16-14 29-11 21 3 42 6 63 6 81 2 163 5 245 3 81-1 161-9 239-27 34-7 67-15 96-35 23-15 30-36 23-62-2-9-6-18-10-27 1-1 3-1 4-2 7 14 17 28 21 44 5 22-9 40-26 51z m-179-180c12 5 15 11 16 24 2 33 7 66 22 96 14 28 35 40 66 37 2 0 5 0 10 0-27 15-58 8-76-17-8-12-15-26-19-40-7-25-11-51-16-76-2-9-5-13-14-16-30-10-60-20-89-33-69-29-131-71-194-111-4-2-8-4-12-7 1 17 4 31 4 46 1 33-3 65-19 94-18 31-50 47-82 40 34-8 54-30 65-61 10-27 13-55 11-84-3-40-13-79-29-118 2 2 4 2 5 4 105 93 221 168 351 222z m-336-225c-16-8-29-16-38-32-7-12-17-22-27-31-28-25-59-36-96-29-5 2-10 0-15-3-25-13-51-27-76-41-43-24-86-48-129-73 1 0 1-1 2-2 49 26 99 52 148 78 1-1 1-2 2-3-35-23-70-45-106-68 1-1 2-2 2-3 42 24 84 49 125 74 1-1 1-1 2-2-8-6-17-12-25-18 1 0 1 0 2-1 34 17 68 35 102 52 1-1 1-2 2-3-10-7-20-14-26-19 182 105 369 212 555 319-12-3-24-6-35-11-123-61-246-123-369-184z m-491 220c95-14 174 22 242 85-15-9-30-18-45-26-60-35-123-49-192-40-78 10-156 21-235 31-35 4-71 7-107 10 34-8 68-15 102-20 78-14 156-29 235-40z m82 57c-36-7-72-3-108 1-19 2-38 3-57 5 0-3 1-4 2-4 4-1 9-3 14-4 54-10 108-20 163-9 35 8 67 21 80 60 9 24 4 33-22 36-52 7-104 8-157-1 3 0 6 0 9 0 35-1 70-1 105-3 9-1 17-6 26-10-1-1-1-2-2-3-14 1-28 2-42 3-15 1-30 2-45 2-14 1-27 0-41 0 37-5 74-8 110-10 9-1 17-2 20-14-44 0-87 10-130 1 42 1 83-1 124-12-6-20-22-33-49-38z m-100 332c127 32 255 39 385 37 19 0 39 0 57 0-6 1-15 3-23 3-99 8-198 10-296-2-69-8-136-22-200-49-34-14-66-32-94-58 3 1 7 2 10 4 51 28 105 51 161 65z m-295-644c-38-20-75-42-113-63-27-15-55-31-83-47 1-1 1-2 2-3 42 23 84 45 127 67 0-1 1-2 1-3-24-15-48-31-72-47 1-1 1-2 1-3 29 17 58 33 87 49 0 0 1-1 1-2-6-4-13-9-19-14 0 0 0-1 1-2 35 18 71 36 106 54 1 0 1-1 1-2-14-10-28-20-42-30 1-1 1-2 2-3 25 16 51 32 75 47-19 1-38 3-58 4-5 0-12 1-17-2z m1107 513c1 1 1 3 2 4-19 13-37 27-55 40-65 45-134 80-215 83-40 1-80-2-117-19 40 12 80 16 121 11 78-11 146-41 208-89 10-7 19-14 29-20 9-4 18-6 27-10z m-142-298c0 0-1 1-1 2-32-12-64-24-97-37-11 45-16 54-32 64 16-32 15-66 15-100 38 24 77 47 115 71z m76 310c6-5 16-4 24-7 0 2 1 3 1 4-51 41-105 75-169 92 53-22 100-53 144-89z m129-16c4 1 9 2 13 5 17 10 17 31-1 39-19 8-39 13-60 18-4 1-9-3-15-5 18-4 33-7 48-11 33-10 36-20 15-46z m-978-464c1 12 2 24 3 38-33 6-64 13-96 20 0-1 0-2 0-4 20-5 40-11 61-16 15-4 23-10 19-26-2-9 2-14 13-12z m1027 302c7 1 13-2 18-7-4 3-9 4-14 3-11-1-20-11-21-23-1-6 0-12 4-17l0 0-18-23c0 0-13-15-12-16 6-12 17-21 32-25 13-4 26 2 36 12 28 28 39 103 20 138-7 12-16 21-32 23-4-22-13-65-13-65l0 0z m-8-96c-5 1-11 4-14 8-2 2 2 10 5 14 4 6 10 12 18 21 4-13 9-24 9-34 0-11-11-9-18-9z m36 151c17-17 17-36 19-57-9-1-17-2-28-4 3 21 6 39 9 61z m-1-133c-12 24-6 44 17 48-2-20-6-34-17-48z m-39 73l-31 26-8-23c0 0 20-11 30-18 1 7 4 12 9 15z m-89 15c-20-7-41-15-62-19-54-10-108-6-161-1-60 6-119 13-179 7-100-10-169-60-204-154-15-42-20-86-17-130 2-26 7-51 10-77-4 0-9-1-14 0-64 7-128 11-191 23-104 21-207 48-311 72-14 4-29 7-44 11 4-5 9-6 13-9 4-2 9-5 11-9 11-44 67-67 107-52 22 9 41 5 61-2 7-3 14-5 21-7 105-33 211-60 322-62 25-1 49 0 76 0-3 10-4 17-6 23-14 62-18 124-9 186 8 57 38 101 83 133 42 30 92 43 145 40 55-3 110-8 166-11 46-3 92-1 137 14 16 6 32 15 48 22-1 1-2 2-2 2z m-1104-322c-26 11-33 32-33 32l79-27c0 0-19-16-46-5z" horiz-adv-x="1676" />

<glyph glyph-name="liquido-direccion" unicode="&#xe81a;" d="M469 16c6 44 21 85 43 121-19 36-30 77-30 120 0 1 0 2 0 4-17-23-44-38-74-38-51 0-93 42-93 93s42 93 93 93c40 0 74-26 87-62 10 36 25 75 46 116-44 6-89 10-133 10-81 0-161-10-238-30-16-4-31-9-47-13 45 113 156 193 285 193 70 0 134-24 186-64 13 21 26 41 38 58-63 47-140 75-224 75-207 0-376-169-376-376s169-376 376-376c87 0 168 30 232 81-24 9-46 22-65 38-31-20-67-36-106-43z m-368 300c0 26 3 51 9 75 14 5 64 19 78 23l-28-119c-9 2-50 14-59 16 0 2 0 3 0 5z m3-39c128-26 226-132 242-262-127 26-226 132-242 262z m332-266c-9-1-18-2-28-2-10 0-19 1-28 2-1 10-11 53-13 63h81c-2-10-11-53-12-63z m444 557c3-4 5-8 8-13 0 0 1-1 1-1 18-30 34-59 47-86 20 20 32 47 32 76 0 36-17 82-51 137-25 40-49 70-50 71l-6 8-6-8c-1-1-26-31-51-72 0-1 0-1-1-2 17-22 46-62 77-110z m-28-35c0 1-1 1-1 1-3 5-5 9-8 13-47 75-91 128-93 130l-4 6-8 10-9-10-4-6c-2-2-52-63-102-145-67-111-102-204-102-275 0-120 97-217 217-217s216 98 216 217c0 72-34 165-102 276z m-114-460c-18 0-36 3-52 8 1 0 224 93 206 303 18-44 29-88 29-127 0-101-82-184-183-184z" horiz-adv-x="1000" />

<glyph glyph-name="profesor" unicode="&#xe81b;" d="M64 593c0 90 74 165 166 165s166-74 166-165c0-91-74-166-166-166s-166 75-166 166z m357-651l-7 261 189-90c10-5 18-8 27-8 19 0 38 10 48 27l138 228c16 27 8 61-18 77-27 16-62 8-78-19l-111-182-156 87c-70 43-104 63-209 63h-15-16c-199-22-165-183-165-183l13-261h360z m533 741l-19 12-136-236 19-11 136 235z" horiz-adv-x="1000" />

<glyph glyph-name="menu" unicode="&#xe81c;" d="M113 581c130 0 265 0 395 0 127 0 249 0 375 0 64 0 99 20 95 91-4 63-39 75-90 75-257 0-514 0-771 0-63 0-99-20-95-91 4-63 43-75 91-75z m12-316c126 0 249 0 375 0s249 0 375 0c56 0 103 4 103 83 0 75-47 83-103 83-249 0-498 0-751 0-55 0-102-8-102-83 0-79 47-83 103-83z m750-150c-249 0-498 0-751 0-55 0-102-4-102-83 0-75 47-83 102-83 127 0 249 0 376 0s249 0 375 0c56 0 103 4 103 83 0 75-47 83-103 83z" horiz-adv-x="1000" />

<glyph glyph-name="muestrario" unicode="&#xe81d;" d="M155 101c-39 0-70-31-70-70s31-70 70-70 70 31 70 70-31 70-70 70z m0-108c-21 0-38 17-38 38s17 38 38 38 38-17 38-38-17-38-38-38z m775 203h-348l249 249c22 22 22 58 0 80l-154 153c-22 22-58 22-80 0l-253-253v353c0 31-25 56-56 56h-217c-32 0-57-25-57-56l1-747c0-91 75-165 166-165h749c31 0 56 25 56 56v217c0 32-25 57-56 57z m-310 460c9 9 25 9 34 0l154-154c9-9 9-25 0-34l-113-114-188 188 113 114z m-287-287l11-12 162-161h-325c-8 0-15 0-22-1 0 0 0 0 0 0l23 23 23 23 107 107 21 21z m-287 409c0 13 11 24 25 24h217c13 0 24-11 24-24v-160h-266v160z m0-193h266v-181h-266v181z m0-426v32 181h245l-181-181-28-28c-14-10-26-22-36-36v32z m41 8c0 0 0 0 0 0 0 0 0 0 0 0 0 0 0 0 0 0z m223-269h-129c-74 0-133 59-133 133s59 133 133 133h129v-266z m214 0h-181v266h181v-266z m-168 493l128 128 188-188-128-127-188 187z m381-493h-181v266h181v-266z m217 24c0-13-11-24-24-24h-161v266h161c13 0 24-11 24-24v-218z" horiz-adv-x="1000" />

<glyph glyph-name="logorrg" unicode="&#xe81e;" d="M218 475l-203-105c-7-3-7-13 0-16l469-239c3-1 6-1 8 0l493 250c3 2 5 5 5 8v204c0 7-7 11-13 8l-478-241c-3-1-6-1-8 0l-266 131c-2 1-5 1-7 0z" horiz-adv-x="1000" />

<glyph glyph-name="luces" unicode="&#xe81f;" d="M597 776h-190c-15 0-28-13-28-28s13-29 28-29h190c16 0 28 13 28 29s-12 28-28 28z m0-113h-190c-15 0-28-13-28-28s13-29 28-29h190c16 0 28 13 28 29s-12 28-28 28z m0-113h-190c-15 0-28-13-28-28s13-29 28-29h190c16 0 28 13 28 29s-12 28-28 28z m-302 282h-83c-110 0-198-88-198-197s88-198 198-198h83c15 0 28 12 28 28v339c0 16-13 28-28 28z m-29-339h-54c-78 0-142 64-142 142s64 141 142 141h54v-283z m303-270l-174-81c-12-3-19-14-19-25v0c0-19 17-32 35-26l174 81c11 3 19 14 19 26v0c0 18-17 31-35 25z m0-113l-174-81c-12-3-19-14-19-25v0c0-19 17-32 35-26l174 81c11 3 19 14 19 25v0c0 19-17 32-35 26z m0-113l-174-81c-12-3-19-14-19-26v0c0-18 17-31 35-25l174 80c11 4 19 15 19 26v0c0 18-17 32-35 26z m212 274h-83c-16 0-29-13-29-28v-340c0-15 13-28 29-28h83c109 0 198 89 198 198s-89 198-198 198z m0-339h-55v283h55c78 0 141-64 141-142s-63-141-141-141z" horiz-adv-x="1000" />

<glyph glyph-name="cerrar" unicode="&#xe820;" d="M587 342l377 378c24 23 24 61 0 85-23 23-61 23-85 0l-377-378-378 378c-23 23-61 23-84 0-24-24-24-62 0-85l377-378-377-377c-24-24-24-62 0-85 11-12 27-18 42-18s31 6 42 18l378 377 378-377c11-12 27-18 42-18 15 0 31 6 42 18 24 23 24 61 0 85l-377 377z" horiz-adv-x="1000" />

<glyph glyph-name="presion-neumaticos" unicode="&#xe821;" d="M441 514c0 64 0 128 0 191 0 27 16 47 41 53 28 7 57-2 69-24 5-9 8-20 8-30 0-126 0-252 0-378 0-36-24-57-60-57-36 0-58 22-58 59 0 62 0 124 0 186z m58-414c-26 0-47 14-54 36-6 19 1 39 18 52 21 15 52 16 74 1 17-13 24-33 18-53-6-22-29-37-56-36z m452 430c-22 44-53 85-82 126-19 26-41 50-63 74-9 10-15 20-13 34 1 9 0 19-1 28-1 13-9 18-20 17-11 0-18-6-19-17 0-20-1-40 0-59 1-6 6-12 10-17 41-52 85-101 123-155 70-100 72-206 18-314-29-58-61-116-92-173-4-7-13-13-21-14-96-17-193-25-291-24-97-1-194 7-291 24-8 1-17 7-20 14-32 57-64 115-93 173-54 108-52 214 18 314 38 54 82 103 124 155 4 5 9 11 9 17 1 19 0 39 0 59 0 11-7 17-18 17-12 1-20-5-21-17-1-9-2-19-1-28 2-14-3-24-13-34-22-24-44-48-63-74-29-41-59-82-82-126-49-99-40-198 7-295 31-64 67-125 100-188 23-44 54-86 51-140 0-12 10-17 21-17 11 1 18 6 19 18 0 4 1 8 2 15l15-1 10 25 10-25 41 0 11 25 11-26 40 0 11 26 11-27 39 0 12 27 11-28 29 0 10 0 12 28 11-28 40 1 11 27 11-27 40 1 11 26 11-26 40 1 11 25 10-25 33 1c1-7 2-11 2-15 2-12 8-17 19-18 12 0 21 5 21 17-2 54 29 96 52 140 33 63 68 124 99 188 47 97 56 196 7 295z" horiz-adv-x="1000" />

<glyph glyph-name="nivel-bloque-hidraulico" unicode="&#xe822;" d="M143 362c-21 0-38-17-38-38s17-37 38-37 38 17 38 37-17 38-38 38z m0-53c-9 0-16 7-16 15 0 9 7 16 16 16 9 0 16-7 16-16 0-8-7-15-16-15z m612-296h-121l-116 65-1 0-86 2 0 0-86-2-117-65h-121l167 132h314l25-19c-14 16-25 34-34 54h-311l-189 113v61l242 121h220l65-33c5 10 10 20 16 30l-64 32v78h-253v-78l-260-129v-101l192-115-227-180h227l117 66 77 1 77-1 118-66h226l-82 65c-30 3-58 11-84 24l69-55z m-417 536h186v-40h-186v40z m229-229l-136-81-142 85 142 86 137-82c2 11 5 22 9 34l-146 87-208-124 208-125 131 79c1 13 2 27 5 41z m344 228c2-3 4-7 7-11 0 0 0-1 0-1 17-27 31-53 43-77 18 17 29 41 29 68 0 32-16 74-46 123-22 36-44 63-45 64l-6 7-5-7c-1-1-23-28-46-65 0 0 0-1-1-1 16-20 42-56 70-100z m-20-31c0 1 0 1-1 2-2 4-4 7-7 11-42 67-81 115-83 117l-4 5-7 9-8-9-4-5c-2-2-46-57-91-131-61-100-92-183-92-247 0-107 87-195 195-195s194 88 194 195c0 65-31 149-92 248z m-103-413c-16 0-31 2-46 6 0 1 201 84 185 273 16-39 26-79 26-114 1-91-73-165-165-165z" horiz-adv-x="1000" />

<glyph glyph-name="purgar-filtro" unicode="&#xe823;" d="M974 254c0 0 0 0 0 0-1 1-1 2-2 3-12 19-23 33-24 33l-1 2-2 2-2-2-1-2c-1 0-13-16-26-36-17-29-26-52-26-70 0-30 25-55 55-55 30 0 55 25 55 55 0 18-9 42-26 70z m-39 48c11 8 17 21 16 34 0 13-7 26-18 33l-1 1-86 44c-7 4-14 6-22 6h-3v59l49-7v65l-129-19v-27l49-7v-64h-98v151h-557v-148h-135v-47h183v19 29 100h462v-104-25-18h179l0-1 81-42-41-24-20 10-2 1c-5 2-10 3-16 3l-181 0 0-22v-126h-462v105 24 23h-183v-47h135v-152h557v151l133 1 21-11 2-1c5-2 10-3 16-3 8 0 17 2 24 7l46 28 1 1z" horiz-adv-x="1000" />

<glyph glyph-name="liquido-refrigeracion" unicode="&#xe824;" d="M967 31c-40 25-82 34-127 14-20-9-37-24-56-36-26-18-44-17-69 4-61 51-115 53-178 6-34-25-50-25-83 1-58 45-112 45-171 3-37-27-52-27-87 1-9 6-17 12-26 18-18 13-39 18-56 18-30 0-62-12-81-29-8-7-11-12-1-20 9-9 18-19 26-29 9-10 16-13 28-4 16 14 34 12 51 0 6-6 13-11 20-16 57-42 106-43 163-2 42 29 56 29 97-3 48-37 104-38 153-4 53 37 57 37 109-3 35-28 73-33 115-18 22 8 40 22 58 36 23 18 47 21 72 5 8-5 13-5 18 3 9 13 18 25 28 37 7 8 6 13-3 18z m-293 139c-5 1-7-4-9-7-9-12-16-25-25-37-7-9-3-14 5-19 24-13 49-19 76-21 37-3 70 12 102 28 26 12 51 16 79 6 12-4 23-20 35-14 12 6 18 21 27 33 2 2 4 6 6 8 6 7 4 12-3 16-47 31-97 41-152 22-17-6-35-15-52-23-26-11-52-10-77 2-4 2-8 4-12 6z m-585-51c4 2 7 3 11 4 32 10 59-5 86-18 59-29 116-24 171 9 10 6 15 11 5 22-8 11-16 22-24 33-5 8-10 9-18 4-37-25-75-23-114-1-26 14-54 24-84 23-11-1-21-2-32-4-8-1-16-3-24-7-50-20-38-18-17-50 15-24 15-24 40-15z m411-56c54 0 97 43 97 97 0 33-17 63-43 80v81h155c10 0 19 9 19 19v19c0 10-9 19-19 19h-155v86h155c10 0 19 9 19 20v18c0 11-9 20-19 20h-155v86h155c10 0 19 9 19 19v19c0 10-9 19-19 19h-155v83c0 16-12 29-28 29h-52c-15 0-28-13-28-29v-508c-26-17-43-47-43-80 0-54 44-97 97-97z" horiz-adv-x="1000" />

<glyph glyph-name="piloto-matricula" unicode="&#xe825;" d="M905 567h-809c-48 0-87-39-87-86v-262c0-47 39-86 87-86h809c47 0 86 39 86 86v262c0 47-39 86-86 86z m-68-70c0-14-11-25-25-25h-92c-14 0-24 11-24 25s10 24 24 24h92c14 0 25-11 25-24z m-532 0c0-14-11-25-25-25h-92c-14 0-24 11-24 25s10 24 24 24h92c14 0 25-11 25-24z m600-341h-809c-36 0-64 28-64 63v219h936v-219c0-35-28-63-63-63z m-518 127l-14 9c-4 2-5 6-3 10l50 87c2 3 6 4 10 2l14-9c4-1 5-6 3-9l-50-87c-2-3-6-5-10-3z m122-28l-19 0c-3 0-6 2-6 6l1 102c0 4 3 6 6 6l19 0c3 0 6-2 6-6l-1-102c0-4-2-6-6-6z m118 36l-15-9c-3-1-7 0-9 3l-50 87c-2 4 0 8 3 10l15 8c3 2 7 1 9-2l50-87c1-4 1-8-3-10z m-22 121h-208c-4 0-8 3-8 7v19c0 4 4 7 8 7h208c4 0 7-3 7-7v-19c0-4-3-7-7-7z" horiz-adv-x="1000" />

<glyph glyph-name="liquino-frenos" unicode="&#xe826;" d="M400 333c-36 0-66-30-66-67 0-37 30-67 66-67 37 0 67 30 67 67 0 37-30 67-67 67z m0-90c-13 0-23 10-23 23 0 13 10 23 23 23 13 0 23-10 23-23 0-12-10-23-23-23z m0-104c-69 0-127 57-127 127 0 70 58 127 127 127 48 0 90-27 112-66 3 17 8 36 13 55-31 34-75 55-125 55-94 0-170-77-170-171s76-171 170-171c53 0 100 24 132 62-8 16-14 34-18 51-21-41-64-69-114-69z m216-83c-55-56-131-91-216-91-166 0-301 135-301 300h52c12 0 21 9 22 20 9 112 97 199 208 209 12 1 20 10 20 21v53c66-1 127-22 177-58 6 12 13 25 20 38-56 40-124 63-197 63v34c0 6-3 12-7 16-4 4-10 7-16 6-99-5-192-47-262-117-70-70-111-163-117-261 0-7 2-12 6-17s10-7 16-7h35c0-189 155-344 344-344 101 0 191 43 254 112-14 7-26 14-38 23z m-571 253c19 164 148 293 312 313v-87c-56-9-108-36-149-77-41-40-67-93-76-149h-87z m868 278c3-4 5-8 8-13 0 0 1-1 1-1 18-30 34-58 47-86 20 20 32 47 32 76 0 36-17 82-51 137-25 40-49 70-50 71l-6 8-6-8c-1-1-26-31-51-72 0-1 0-1-1-2 17-22 46-62 77-110z m-28-35c0 1-1 1-1 2-3 4-5 8-8 12-47 75-91 128-93 131l-4 5-8 10-9-10-4-5c-2-3-52-64-102-146-67-111-102-204-102-275 0-120 97-217 217-217s216 98 216 217c0 72-34 165-102 276z m-114-460c-18 0-36 3-52 8 1 0 224 93 206 303 18-44 29-88 29-127 0-101-82-184-183-184z" horiz-adv-x="1000" />

<glyph glyph-name="luces-antiniebla" unicode="&#xe827;" d="M897 515c-64 70-146 105-237 125-29 6-59 4-87 14-5 0-10 0-15 0-15-5-20-17-23-31-2-11-4-22-6-33-17-132-16-265-8-397 2-41 6-81 17-121 3-14 10-19 25-18 23 1 46 2 69 5 96 15 184 50 255 119 101 98 106 234 10 337z m-342-442c-27 77-27 490 0 557 20-186 19-371 0-557z m-299 377l196 44c11 0 20 14 20 31s-9 32-20 32l-174-39c9 20 19 38 27 50 7 12 4 28-7 36l0 0c-13 9-31 6-39-7-12-21-30-52-43-87 0-2-1-4-2-7l-160-36c-11 0-20-14-20-31v0c0-17 9-31 20-31l146 32c-3-36 3-64 15-87l-161-36c-11 0-20-14-20-31 0-18 9-32 20-32l159 36c-10-28-13-59-9-92l-150-34c-11 0-20-14-20-31v0c0-17 9-32 20-32l165 38c0 0 0-1 0-1 12-32 28-59 40-77 8-14 27-17 39-6l0 0c11 8 13 24 6 35-9 15-22 36-31 61l179 40c11 0 20 14 20 31 0 18-9 32-20 32l-195-44c-4 37 4 69 24 96l170 38c11 0 20 14 20 32v0c0 17-9 31-20 31l-181-41c-18 25-20 56-14 87z" horiz-adv-x="1000" />

<glyph glyph-name="luces-fundidas" unicode="&#xe828;" d="M219 407c9 0 17 7 19 16 0 5-1 10-4 15-3 4-7 6-12 7l-178 31c-10 1-20-6-22-16 0-5 1-10 4-14 3-4 7-7 12-8l178-30c1-1 2-1 3-1z m37-134c-2 5-6 9-11 11-5 2-10 1-15-1l-165-71c-5-2-8-6-10-11-2-4-2-10 0-14 3-7 10-12 18-12 2 0 5 1 7 2l166 71c9 5 14 16 10 25z m96-115c-4 2-9 4-14 2-5-1-9-4-12-8l-100-150c-3-4-4-9-3-14 1-5 4-10 8-12 4-2 7-3 11-3 6 0 12 3 16 8l100 150c2 5 4 10 2 15-1 5-4 9-8 12z m144-45l0 0c-10 0-19-8-19-18l-2-181c0-10 8-19 19-19h0c11 0 19 8 19 19l2 180c0 5-2 10-5 13-4 4-9 6-14 6z m172 36c-3 4-7 7-12 8-5 1-10 0-15-2-4-3-7-7-8-12s0-11 2-15l97-152c3-6 9-9 16-9 3 0 7 1 10 3 4 3 7 7 8 12s1 10-2 14l-96 153z m262 53l-164 76c-5 2-10 2-15 0-4-2-8-5-11-10-2-4-2-10 0-14 2-5 5-9 10-11l164-75c2-2 5-2 8-2 7 0 14 4 17 11 4 10 0 21-9 25z m48 247c-2 10-11 18-22 16l-178-26c-10-2-18-11-16-22 1-9 9-16 19-16 1 0 1 0 2 0l179 26c10 2 18 12 16 22z m-705 15c-9-26-13-53-13-81 0-64 25-124 70-169 45-46 105-71 170-71 64 0 124 25 169 71 46 45 71 105 71 169 0 64-25 124-70 169 0 0 0 0 0 0 0 1 0 1-1 1-1 1-2 2-3 3-16 16-33 28-52 39v88c0 46-37 82-82 82h-65c-45 0-82-36-82-82v-88c-52-28-91-74-111-129 0-1 0-1 0-1-1-1-1-1-1-1z m433-75c0-13 0-26-3-39-9-55-39-102-84-134-45-32-100-45-155-36-56 10-103 42-133 85-24 33-38 75-38 119 0 114 92 206 206 206 113 0 204-89 207-201z m-239 344h64c28 0 50-22 50-50v-74c-26 10-53 14-81 14-29 0-57-4-83-14v74c0 28 23 50 50 50z m0-460c0 11 3 19 7 24 6 5 14 7 25 7s20-2 25-7c6-5 8-13 8-24 0-11-3-19-8-24-5-5-13-8-25-8s-19 3-25 8c-4 5-7 13-7 24z m6 253h54l-3-192h-49l-2 192z" horiz-adv-x="1000" />

<glyph glyph-name="luces-marcha-atras" unicode="&#xe829;" d="M468 793c-3 11-8 15-20 14-18-1-37-1-55-4-77-12-147-40-204-95-80-78-84-186-8-268 51-56 117-84 190-100 23-5 47-3 69-11 4 0 8 0 12 0 12 4 16 14 18 25 2 9 4 17 5 26 13 105 13 211 6 317-2 32-4 64-13 96z m-14-445c-15 148-15 296 1 444 21-62 21-391-1-444z m404 245h-303c-9 0-16-7-16-16v-18c0-9 7-16 16-16h302c9 0 16 7 16 16v18c1 9-7 16-15 16z m1-181l-294 69c-9 2-18-3-20-12l-4-18c-2-8 3-17 12-19l295-69c8-2 17 3 19 12l4 18c2 8-3 17-12 19z m-306 292l295 69c8 2 17-3 19-11l4-18c2-9-3-18-12-20l-294-69c-9-2-18 3-20 12l-4 18c-2 9 3 17 12 19z m-151-609h194c2 0 4-2 4-5v-34c0-5 6-7 9-4l56 56c2 2 2 5 0 7l-56 56c-3 3-9 1-9-3v-35c0-3-2-5-4-5h-194c-3 0-5-2-5-5v-23c0-2 2-5 5-5z m403 21l-54 25-48 76c-14 23-39 37-66 37h-206c-24 0-47-12-62-31l-62-81-103-28c-27-7-46-32-46-60v-40c0-35 28-63 62-63h7c10-34 40-58 77-58s68 24 77 58h230c10-34 40-58 77-58s67 24 77 58h15c34 0 62 28 62 63v45c0 25-14 47-37 57z m-453-144c0-12-5-24-14-33-9-9-21-14-34-14-26 0-48 21-48 47 0 27 22 48 48 48s48-21 48-48z m383 0c0-12-4-24-13-33-9-9-22-14-34-14-27 0-48 21-48 47s21 48 48 48 47-21 47-48z m45 10h-13c-5 40-39 70-79 70-41 0-74-30-79-70h-226c-5 40-38 70-79 70-40 0-74-30-79-70h-5c-17 0-30 15-30 32v40c0 14 9 26 23 30l108 30c2 0 6 2 8 5l65 85c9 12 23 19 38 19h205 0c16 0 31-9 39-22l51-80c1-3 4-5 7-6l58-27c11-5 18-16 18-29v-42l0-3c0-17-13-32-30-32z" horiz-adv-x="1000" />

<glyph glyph-name="rrg-buscar" unicode="&#xe82a;" d="M735 622c-51 52-120 80-193 80-72 0-141-28-192-78-51-51-80-117-82-188 0-4 3-8 8-8h59c4 0 7 4 7 8 2 50 22 97 59 133 37 38 87 59 141 59 53 0 103-21 141-59 37-37 58-87 58-141 0-53-21-103-58-141-38-37-88-58-141-58-47 0-92 16-128 46l-20 17c-3 2-8 2-10-1l-197-197c-1-1-2-3-2-5v-84c0-6 8-10 12-5l194 193c2 3 6 3 9 1 42-25 92-39 142-39 73 0 142 28 193 80 52 52 81 120 81 193-1 74-29 142-81 194z m-290-196h-41c-4 0-7 4-7 8 4 75 65 136 140 140 4 0 8-3 8-7v-41c0-4-3-7-7-8-46-3-82-40-85-85-1-4-4-7-8-7z" horiz-adv-x="998" />

<glyph glyph-name="rrg-carro" unicode="&#xe82b;" d="M619 56c-53 0-96 44-96 97 0 53 43 97 96 97 54 0 97-44 97-97 0-53-43-97-97-97z m0 138c-22 0-41-18-41-41 0-23 19-41 41-41 23 0 41 18 41 41 0 23-18 41-41 41z m-296-138c-53 0-96 44-96 97 0 53 43 97 96 97 54 0 97-44 97-97 0-53-43-97-97-97z m0 138c-22 0-41-18-41-41 0-23 19-41 41-41 23 0 41 18 41 41 0 23-18 41-41 41z m53 408v-59c0-4 3-7 7-7h358c5 0 9-5 7-10l-44-130c-6-18-22-29-40-29h-372c-4 0-7 2-7 6l-64 316c0 3-3 6-7 6h-60c-5 0-9-4-8-9l78-387c1-4 4-6 7-6h432c50 0 95 32 111 79l78 228c1 5-2 10-7 10h-462c-4 0-7-4-7-8z" horiz-adv-x="998" />

<glyph glyph-name="rrg-comentario" unicode="&#xe82c;" d="M656 421h-315c-4 0-7 3-7 7v41c0 4 3 7 7 7h315c4 0 7-3 7-7v-41c0-4-3-7-7-7z m7-105v41c0 4-3 8-7 8h-315c-4 0-7-4-7-8v-41c0-4 3-7 7-7h315c4 0 7 3 7 7z m42 311h-413c-71 0-129-58-129-129v-181c0-4 3-7 7-7h59c4 0 8 3 8 7v181c0 31 24 55 55 55h413c31 0 55-24 55-55v-217c0-31-24-55-55-55h-60c-1 0-3-1-4-2l-139-106c-2-2-6-2-9 0l-148 107c-4 3-11 0-11-6v-73c0-3 1-5 3-6l158-115c2-2 6-2 8 0l163 125c1 1 3 2 5 2h34c71 0 129 57 129 129v217c0 71-58 129-129 129z" horiz-adv-x="998" />

<glyph glyph-name="rrg-corazon" unicode="&#xe82d;" d="M778 589c-19 24-40 45-61 60-26 19-52 29-76 29-19 0-52-7-122-63-11-10-22-20-32-28-3-3-7-3-10 0-9 8-20 18-32 28-33 27-82 63-122 63-24 0-50-10-76-29-21-15-42-36-61-60-7-9-14-18-20-28-2-3-1-7 1-9l44-43c3-3 9-3 11 2 7 11 14 22 22 33 32 41 63 60 79 60 0 0 20-1 75-47 31-25 57-51 58-52l21-21c2-3 7-3 10 0l21 21c0 1 26 26 57 52 56 45 76 47 76 47 16 0 47-21 78-61 30-38 50-82 50-111 0-4-5-48-151-190-50-49-101-93-131-119-3-3-7-3-10 0-30 26-81 70-131 119-23 22-42 42-59 59-4 5-13 2-13-5v-85c0-2 1-4 3-5 5-6 11-12 18-18 81-79 160-144 164-147l18-15c3-2 7-2 10 0l19 15c3 3 83 69 164 148 48 46 86 88 114 123 40 51 59 89 59 120 0 46-25 104-65 157z" horiz-adv-x="998" />

<glyph glyph-name="rrg-itinerario" unicode="&#xe82e;" d="M733 675l158-147c3-3 3-8 0-11l-158-148c-1-1-3-2-5-2h-198c-4 0-7-3-7-7v-329c0-4-4-8-8-8h-59c-4 0-7 4-7 8v403c0 4 3 7 7 7h243c2 0 4 1 5 2l79 74c3 3 3 8 0 11l-79 73c-1 1-3 2-5 2h-459c-4 0-7-3-7-7v-145c0-4 3-7 7-7h121c6 0 10-9 5-13l-63-59c-1-2-3-3-5-3h-132c-4 0-8 4-8 8v293c0 4 4 7 8 7h562c2 0 4-1 5-2z" horiz-adv-x="998" />

<glyph glyph-name="rrg-dobleperfil" unicode="&#xe82f;" d="M652 396c-82 0-148 66-148 147s66 148 148 148c81 0 148-66 148-148s-67-147-148-147z m0 221c-41 0-74-33-74-74s33-74 74-74c40 0 74 34 74 74s-34 74-74 74z m-342-221c-81 0-148 66-148 147s67 148 148 148c82 0 148-66 148-148s-66-147-148-147z m0 221c-40 0-73-33-73-74s33-74 73-74c41 0 74 34 74 74s-33 74-74 74z m553-390c-17 20-40 42-67 63-24 19-51 37-75 50-29 16-52 24-69 24-18 0-41-8-70-24-24-13-50-31-75-50-9-7-18-15-26-22-8 7-17 15-26 22-25 19-52 37-75 50-29 16-52 24-70 24-17 0-40-8-69-24-24-13-51-31-75-50-9-7-17-14-25-20-2-2-3-4-3-6v-90c0-6 7-8 10-4 3 4 5 7 9 11 13 16 32 33 54 51 48 38 88 56 99 58 11-2 51-20 99-59 22-17 40-34 54-50 17-20 19-30 19-31v-52c0-5-3-8-7-8h-197c-4 0-7-3-7-7v-60c0-4 3-7 7-7h271c4 0 8 3 8 7v128c0 19-9 40-25 63 6 6 13 12 21 18 48 38 88 56 99 58 10-2 50-20 99-58 22-18 40-35 54-51 17-20 19-30 19-31v-52c0-4-3-8-7-8h-197c-4 0-7-3-7-7v-59c0-4 3-8 7-8h271c4 0 7 4 7 8v127c0 23-11 48-35 76z" horiz-adv-x="998" />

<glyph glyph-name="rrg-localizacion" unicode="&#xe830;" d="M499 357c-53 0-97 43-97 97s44 97 97 97c54 0 98-43 98-97s-44-97-98-97z m0 139c-23 0-41-19-41-42 0-23 18-42 41-42 23 0 42 19 42 42 0 23-19 42-42 42z m182 137c-30 29-61 55-91 74-36 23-66 34-91 34-25 0-54-11-91-34-29-19-60-44-90-74-4-3-8-7-13-12-1-1-2-3-2-5v-90c0-7 9-10 13-4 14 17 31 37 53 58 26 26 54 48 79 64 35 23 50 23 51 23 2 0 17 0 51-23 25-16 53-39 79-64 66-64 91-113 91-129 0-30-13-70-37-118-20-41-49-87-85-137-34-48-69-91-93-119-3-4-9-4-12 0-20 24-49 59-78 98-3 4-8 4-11 2l-46-38c-3-3-3-7-1-10 59-79 112-137 115-140l22-23c3-4 8-4 11 0l21 23c3 3 67 72 132 163 90 125 136 226 136 299 0 66-79 149-113 182z" horiz-adv-x="998" />

<glyph glyph-name="rrg-flecha" unicode="&#xe831;" d="M858 452c-28 22-65 48-108 76-70 45-173 105-236 126l-39 13c-5 1-9-2-9-7v-203c0-4 3-7 7-7h59c4 0 8 3 8 7v94c0 6 5 10 10 7 42-20 93-50 145-83 39-24 74-48 101-69 15-11 25-20 32-26 3-3 3-8 0-11-7-7-17-15-32-27-27-20-62-44-101-69-52-33-103-62-145-83-5-2-10 1-10 7v138c0 4-4 8-8 8l-383 2c-1 0-3-1-4-2l-70-58c-5-5-2-13 5-13l378-3c4 0 8-3 8-7v-174c0-5 5-8 9-7l39 13c63 21 166 81 236 126 43 28 80 54 108 77 42 34 57 55 57 77 0 23-15 44-57 78z" horiz-adv-x="998" />

<glyph glyph-name="rrg-estrella" unicode="&#xe832;" d="M896 463l-254 41c-2 1-4 2-5 4l-128 240c-3 5-11 5-13 0l-129-240c-1-2-3-3-5-4l-254-41c-5-1-8-8-4-13l143-153c1-1 3-2 5-2h81c7 0 10 8 6 12l-86 93c-4 4-2 11 4 12l153 25c2 1 4 2 5 4l81 150c2 5 10 5 13 0l80-150c1-2 3-3 5-4l153-25c6-1 8-8 4-12l-107-116c-2-2-3-4-2-6l21-162c1-6-5-10-10-8l-148 76c-2 1-4 1-6 0l-179-92c-3-1-4-4-4-6v-67c0-5 6-9 10-6l172 88c3 1 5 1 7 0l240-123c5-3 11 1 11 7l-36 268c-1 3 0 5 2 6l178 192c4 4 1 11-4 12z" horiz-adv-x="998" />

<glyph glyph-name="rrg-lupa+" unicode="&#xe833;" d="M656 446v-40c0-5-3-8-7-8h-76v-76c0-4-4-7-8-7h-41c-4 0-7 3-7 7v76h-76c-4 0-7 3-7 8v40c0 4 3 8 7 8h76v76c0 4 3 7 7 7h41c4 0 8-3 8-7v-76h76c4 0 7-4 7-8z m79 176c-51 52-120 80-193 80-72 0-141-28-192-78-51-51-80-117-82-188 0-4 3-8 8-8h59c4 0 7 4 7 8 2 50 22 97 59 133 37 38 87 59 141 59 53 0 103-21 141-59 37-37 58-87 58-141 0-53-21-103-58-141-38-37-88-58-141-58-47 0-92 16-128 46l-20 17c-3 2-8 2-10-1l-197-197c-1-1-2-3-2-5v-84c0-6 8-10 12-5l194 193c2 3 6 3 9 1 42-25 92-39 142-39 73 0 142 28 193 80 52 52 81 120 81 193-1 74-29 142-81 194z" horiz-adv-x="998" />

<glyph glyph-name="rrg-llave" unicode="&#xe834;" d="M813 409c0-72-28-140-79-191-51-51-119-79-191-79-33 0-65 6-96 17-2 1-5 1-7-1l-171-171c-2-2-5-2-7 0l-46 46c-2 1-2 4 0 6l210 209c1 2 3 2 5 1l21-11c30-15 61-23 95-22 107 2 192 89 192 196 0 11-1 23-3 34-1 3-4 4-6 2l-112-112c-2-2-4-2-6 0l-149 149c-2 2-2 5 0 6l108 109c3 2 1 6-2 6-8 1-16 2-25 2-108 1-197-88-197-196 0-30 7-59 20-86l10-21c1-2 1-4-1-5l-91-91c-1-1-2-2-3-2h-92c-4 0-6 5-3 8l100 100c2 2 2 5 1 7-10 29-15 59-15 90 0 72 28 140 79 191 51 51 119 79 191 79 42 0 82-9 119-27l28-14c9-5 11-17 4-24l-124-124c-3-2-3-7 0-10l40-40c3-3 7-3 10 0l125 124c7 7 19 6 23-3l14-27c20-38 31-82 31-125z" horiz-adv-x="998" />

<glyph glyph-name="rrg-movil" unicode="&#xe835;" d="M502 155c-22 0-40 17-40 39 0 22 18 40 40 40 21 0 39-18 39-40 0-22-18-39-39-39z m139 357v-383c0-14-11-24-24-24h-236c-13 0-24 10-24 24v484c0 4 4 7 8 7h194c2 0 4 1 5 2l59 59c5 5 2 13-5 13h-327c-4 0-8-3-8-7v-558c0-54 44-98 98-98h236c54 0 98 44 98 98v383c0 4-3 8-7 8h-60c-4 0-7-3-7-8z" horiz-adv-x="998" />

<glyph glyph-name="rrg-ojo" unicode="&#xe836;" d="M470 248c-56 0-101 45-101 101s45 101 101 101 101-46 101-101-45-101-101-101z m0 146c-25 0-45-20-45-45s20-46 45-46 46 21 46 46-21 45-46 45z m365 22c-24 24-55 50-87 72-41 28-83 50-125 66-52 20-103 30-152 30-91 0-178-29-262-86-24-17-46-35-64-52-3-3-3-8 1-11l49-35c3-2 7-2 10 0 14 12 29 25 47 37 70 49 144 73 219 73 88 0 170-41 223-75 35-23 61-46 77-61 9-8 16-15 21-21 2-2 2-7 0-9-5-6-12-13-21-21-16-15-42-37-77-61-53-34-135-75-223-75-36 0-75 7-115 21-35 13-71 30-106 52-3 2-6 4-9 6-5 3-12-1-12-6v-70c0-2 2-5 4-6 62-36 147-71 238-71 49 0 100 10 152 30 42 16 84 39 125 66 32 23 63 48 87 72 36 37 41 54 41 68 0 13-5 30-41 67z" horiz-adv-x="998" />

<glyph glyph-name="viseras" unicode="&#xe837;" d="M839 579l-91-6c-3 0-6-1-9-2 1-6 2-11 2-17v-36c0-34-26-62-60-64l-466-20c0 0-1 0-2 0-15 0-28 6-39 16-12 11-19 27-19 44v31c0 4 1 7 1 10l-51-4c-41-2-74-48-74-103v-207c0-54 33-101 74-105l734-72c70-7 130 48 130 123v284c0 75-60 132-130 128z m-273-3v28c0 8-6 14-13 13l-20-2c-7 0-13 6-13 14v14c0 8-5 14-12 13l-160-15c-6-1-11-7-11-15v-14c0-7-5-13-11-14l-17-1c-6-1-11-7-11-14v-26c0-7-5-13-10-14l-75-4c-5-1-10-7-10-14v-31c0-7 5-12 10-12l85 4 268 11 113 5c8 1 14 7 14 16v36c0 9-7 15-14 14l-101-6c-6 0-12 6-12 14z" horiz-adv-x="1000" />

<glyph glyph-name="videopendiente" unicode="&#xe838;" d="M368 220c4-3 10-4 15-4 4 0 9 1 13 3l104 52c10 5 16 15 16 26 0 11-6 21-16 26l-104 52c-9 5-20 5-28-1-9-5-14-14-14-25v-104c0-10 5-19 14-25z m23 117l79-40-79-39v79z m518 157h-26c-22 0-40-18-40-39v-9l-75-40c-8 11-21 17-35 17h-20v57c0 22-18 40-39 40h-20c24 23 39 56 39 92 0 71-58 129-129 129s-130-58-130-129c0-36 15-69 39-92h-122c24 23 39 56 39 92 0 72-58 129-129 129s-129-58-129-129c0-36 15-69 39-92h-23c-22 0-40-18-40-39v-110c1 0 1 0 2 0 12 0 23-1 35-2v111c0 2 1 3 3 3h526c1 0 3-1 3-3v-366c0-2-1-3-3-3h-355c0-3 1-6 1-9 0-9-1-19-2-28h356c22 0 39 18 39 40v57h20c16 0 30 8 38 20l72-39v-12c0-22 18-40 40-40h26c22 0 39 18 39 40v315c0 21-17 39-39 39z m-648 26c-51 0-92 41-92 92s41 93 92 93 92-42 92-93-41-92-92-92z m303 0c-51 0-93 41-93 92s42 93 93 93c51 0 92-42 92-93s-41-92-92-92z m176-306c0-3-3-6-7-6h-20v179h20c4 0 7-3 7-7v-166z m103-20l-66 36v139l66 35v-210z m69-54c0-2-2-3-3-3h-27c-1 0-3 1-3 3v315c0 1 2 3 3 3h27c1 0 3-2 3-3v-315z m-633-165c0 0-1 0-2 0-8-2-10 2-10 10 1 17 0 34 0 51 1 24-8 43-24 60-7 6-14 12-20 20-12 13-12 29 0 42 6 7 13 14 20 21 17 16 25 36 24 59 0 16 1 32 0 48 0 8 0 16 12 13 5-1 8 2 8 8 0 5-3 8-8 8-2 0-4 0-6 0-62 0-124 0-187 0-6 0-13 0-19 0-3 0-6 0-8 0-4-1-7-4-7-8 0-3 1-5 3-6 1 0 2-1 4-1 1 0 3 0 4 0 9 2 10-3 10-11 0-17 1-33 0-51 0-23 8-42 24-58 7-7 14-13 20-20 13-14 13-31 0-45-6-7-13-13-20-21-16-16-24-34-24-56 0-18 0-36 0-54 1-7 0-10-8-9-6 1-12 0-12-8 0-8 6-8 12-8 35 0 70 0 105 0 34 0 68 0 102 0 2 0 5 0 7 0 5 0 8 3 8 8 0 4-3 8-8 8z" horiz-adv-x="1000" />

<glyph glyph-name="taller1" unicode="&#xe839;" d="M889 234c0-58-23-113-64-154-42-41-96-64-155-64-26 0-52 5-77 14-2 1-4 0-6-1l-138-139c-2-1-4-1-5 0l-38 37c-1 2-1 4 0 6l170 169c1 1 3 1 4 0l17-9c24-12 49-18 76-18 87 2 156 72 156 159 0 9-1 18-3 27 0 2-3 3-5 2l-90-90c-1-2-4-2-5 0l-120 120c-2 1-2 4 0 5l87 88c2 1 1 4-2 5-6 1-13 1-20 1-87 1-159-71-159-158 0-25 5-48 16-70l8-16c1-2 1-4-1-5l-73-74c-1 0-2-1-3-1h-74c-3 0-5 4-3 7l81 80c2 2 2 4 1 6-8 23-12 48-12 73 0 58 23 113 64 154 41 41 96 64 154 64 34 0 66-8 96-22l23-11c7-4 9-14 3-20l-100-100c-3-2-3-6 0-8l32-32c2-3 6-3 8 0l101 100c5 6 15 5 19-3l11-21c17-31 26-66 26-101z m-114 595l0 0c-13 2-27 0-38-8l-625-420v-479c0-28 23-52 51-52 14 0 27 6 37 16 9 9 14 21 13 33l0 0 0 426 581 389c11 8 19 20 22 33 3 14 0 28-7 39-8 12-20 20-34 23z" horiz-adv-x="1000" />

<glyph glyph-name="videovf" unicode="&#xe83a;" d="M436 226c5-3 10-4 15-4 4 0 9 1 13 3l101 51c10 4 16 14 16 25 0 11-6 20-16 25l-101 51c-9 4-19 4-28-1-8-5-13-14-13-24v-102c0-10 5-19 13-24z m23 114l77-39-77-39v78z m503 152h-25c-22 0-39-17-39-38v-9l-73-38c-8 10-20 16-34 16h-19v56c0 21-17 38-38 38h-20c23 23 38 55 38 90 0 69-56 125-126 125s-125-56-125-125c0-35 15-67 38-90h-119c24 23 38 55 38 90 0 69-56 125-126 125s-125-56-125-125c0-35 15-67 38-90h-23c-21 0-38-17-38-38v-106c1 0 1 0 2 0 11 0 22-1 33-2v108c0 2 2 3 3 3h511c2 0 3-1 3-3v-356c0-2-1-3-3-3h-287c0-3 1-5 1-8 0-9-1-18-2-27h289c21 0 38 17 38 38v55h19c15 0 29 8 36 20l71-38v-12c0-21 17-38 38-38h26c21 0 38 17 38 38v306c0 21-17 38-38 38z m-629 25c-50 0-90 40-90 90s40 90 90 90 90-40 90-90-41-90-90-90z m294 0c-50 0-90 40-90 90s40 90 90 90c49 0 89-40 89-90s-40-90-89-90z m171-297c0-3-3-6-7-6h-19v174h19c4 0 7-3 7-7v-161z m100-19l-64 35v135l64 34v-204z m67-53c0-2-1-3-3-3h-26c-1 0-2 1-2 3v306c0 1 1 2 2 2h26c2 0 3-1 3-2v-306z m-880-111l-16 16c-1 3-4 4-6 5-3 1-5 1-8 0l-17-9c-13-6-21-19-22-33l-1-10c0-6 2-12 6-16 4-5 10-7 15-7 1 0 1 0 2 0l10 1c14 1 27 10 33 22l9 17c1 3 1 5 0 8 0 3-2 5-5 6z m278 291c-4 4-10 6-15 6l-7-1c-60-3-116-33-154-79l-15-18-39 1c0 0-1 0-1 0-33 0-64-13-87-37l-42-41c-3-3-4-7-2-11 1-4 5-6 9-7l82-4c-2-3-3-7-1-11 1-2 2-4 4-6l-20-23c-2-3-3-7-1-11 4-10 11-19 18-26 8-8 17-15 28-20 1 0 2 0 4 0 2 0 4 0 6 2 5 3 10 7 15 12l0 0c3 2 6 5 9 8 2-1 3-2 4-3 2-1 4-1 5-1 2 0 5 1 6 2l1 0 4-83c0-4 3-7 7-9 1 0 2 0 3 0 3 0 6 1 7 2l42 42c23 24 36 55 36 88v37l16 12c50 39 80 98 83 161l1 4c0 5-3 10-6 14z m-123-125c-13 13-13 34 0 47 6 7 15 10 24 10 9 0 17-3 23-10 13-13 13-34 0-47-6-6-15-9-23-9-9 0-18 3-24 9z" horiz-adv-x="1000" />

<glyph glyph-name="videooperaciones" unicode="&#xe83b;" d="M416 226c5-3 10-4 15-4 5 0 9 1 13 3l105 52c9 5 16 15 16 26 0 11-6 21-16 26l-105 52c-9 5-19 4-28-1-9-6-14-15-14-25v-104c0-11 5-20 14-25z m23 116l79-39-79-40v79z m518 158h-26c-22 0-40-18-40-40v-9l-75-39c-8 11-20 17-34 17h-20v57c0 22-18 39-40 39h-20c24 24 39 57 39 93 0 71-58 129-129 129s-129-58-129-129c0-36 15-69 39-93h-122c24 24 39 57 39 93 0 71-58 129-130 129s-129-58-129-129c0-36 15-69 39-93h-23c-22 1-40-17-40-39v-109c1 0 2 0 2 0 12 0 24-1 35-3v112c0 2 1 3 3 3h526c2 0 3-1 3-3v-366c0-2-1-3-3-3h-296c0-3 0-6 0-9 0-9 0-19-1-28h297c22 0 40 18 40 40v56h20c15 0 29 8 37 21l72-40v-11c0-22 18-40 40-40h26c22 0 40 18 40 40v314c0 22-18 40-40 40z m-648 25c-51 0-92 42-92 93s41 92 92 92 93-41 93-92-42-93-93-93z m303 0c-51 0-92 42-92 93s41 92 92 92c51 0 92-41 92-92s-41-93-92-93z m176-305c0-4-3-7-6-7h-20v179h20c3 0 6-3 6-6v-166z m103-21l-66 37v139l66 35v-211z m69-54c0-1-1-3-3-3h-26c-2 0-3 1-3 3v315c0 2 1 3 3 3h26c2 0 3-1 3-3v-315z m-578-33v61l-50 7c-3 12-8 24-14 34l30 41-43 43-40-30c-11 6-22 10-34 13l-8 51h-61l-7-51c-12-3-23-7-34-13l-40 30-44-43 31-41c-6-10-11-22-14-34l-50-7v-61l50-7c3-12 8-24 14-34l-31-41 43-43 41 30c10-6 21-11 33-14l8-50h61l7 50c12 3 23 8 34 14l40-30 44 43-30 41c6 10 11 22 14 34l50 7z m-113 30c0-42-34-76-76-76s-77 34-77 76 34 77 77 77 76-34 76-77z" horiz-adv-x="1000" />

<glyph glyph-name="enviono" unicode="&#xe83c;" d="M678 644c-3 3-7 3-10 1l-621-288c-4-2-6-5-6-9 0-3 2-7 5-8l176-86c3-2 7-2 10 0l171 128-134-138c-2-2-3-4-3-7l13-174c1-4 3-7 7-9 1 0 2 0 3 0 3 0 5 1 7 3l93 108 116-55c2-1 5-1 7 0 3 1 5 3 6 6l162 518c2 4 1 7-2 10z m121-251v10c0 15 3 28 7 38 4 11 9 20 16 28 6 8 13 15 20 20 8 6 14 12 21 17 6 6 11 12 16 18 4 6 6 13 6 22 0 17-5 29-14 36-9 7-25 10-46 10-13 0-26-1-40-3-14-3-28-7-43-12v55c29 9 59 14 91 14 43 0 74-7 93-22 20-15 29-39 29-72 0-16-2-29-7-40-5-10-11-20-18-28-7-7-15-15-24-21-8-6-16-13-23-19-8-6-13-13-18-21-5-7-8-16-8-26v-5h-58z m-12-79c0 14 3 24 9 31 7 6 18 9 33 9s25-3 32-9c6-7 10-17 10-31 0-15-4-25-10-32s-17-9-32-9-26 3-33 9c-6 7-9 17-9 32z" horiz-adv-x="1000" />

<glyph glyph-name="climatizacion" unicode="&#xe83d;" d="M339 352c-16 0-28-12-28-28s12-28 28-28 27 13 27 28c0 16-12 28-27 28z m300 0c-15 0-28-12-28-28s13-28 28-28 28 13 28 28-12 28-28 28z m-111 0h-78c-16 0-28-12-28-28s12-28 28-28h78c15 0 28 13 28 28s-13 28-28 28z m31-209c1-36 30-66 66-66h84c37 0 66 30 66 66l0 208c0 30-14 57-38 74l-1 0 0 2c-2 4-35 67-57 108-16 30-45 48-79 48h-221c-33 0-63-18-79-48-8-16-57-109-58-110l0-1-1 0c-24-17-38-44-38-74v-207c0-36 29-66 65-66h84c37 0 66 30 66 66v46h142v-46z m168 0c0-10-8-18-18-18h-84c-9 0-18 8-18 18v46h79c13 0 25 3 36 8l5 2v-56z m-414 313c1 2 6 12 12 23 6 12 13 26 18 35 7 14 21 22 36 22h221c16 0 29-8 37-23 1 0 30-56 31-58l4-7-8 1c-73 14-158 17-175 17-62 0-124-5-172-16l-13-3 9 9z m57-313c0-10-8-18-18-18h-84c-10 0-18 8-18 18v56l6-2c11-5 23-8 36-8h78v-46z m-78 94c-11 0-22 4-30 12-7 8-12 18-12 29v72c0 18 10 32 26 39 48 18 127 29 213 29 33 0 150-6 211-28 17-6 28-21 28-39l-1-77c-2-21-20-37-41-37l-394 0z m-202 198c3 0 7 1 10 2l88 37c5 2 10 7 12 13 3 6 3 12 0 19-2 5-7 10-13 12-6 3-12 3-18 0l-34-14 4 9c64 146 209 241 369 241 184 0 344-124 390-302 3-11 12-18 23-18 2 0 4 0 6 1l0 0c13 3 21 16 17 29-51 199-231 338-436 338-180 0-343-107-414-272l-4-9-13 31c-5 12-19 18-31 13-6-3-11-8-13-14-2-5-2-12 0-18l35-83c4-9 13-15 22-15z m846-224c-4 9-13 15-22 15-3 0-7-1-10-2l-87-37c-6-2-11-7-13-13-3-6-3-12 0-18 2-6 7-11 13-13 6-3 12-3 18 0l34 14-4-9c-64-147-209-241-369-241-184 0-344 124-390 302-3 11-12 18-23 18-2 0-4 0-6-1l0 0c-13-3-21-16-17-29 51-199 231-338 436-338 180 0 343 107 414 272l4 9 13-31c5-12 19-18 31-13 12 5 18 19 13 32l-35 83z" horiz-adv-x="1000" />

<glyph glyph-name="esperacliente" unicode="&#xe83e;" d="M737 605c52 0 94 42 94 93s-42 94-94 94-94-42-94-94 42-93 94-93z m-49 93c0 28 22 50 49 50 28 0 50-22 50-50s-22-49-50-49c-27 0-49 22-49 49z m274-284c-3 5-8 8-14 9-6 0-12-1-17-5-4-3-7-9-8-14-7-57-18-123-28-178-18-94-30-123-34-132-9-16-34-45-101-52-16-1-103 3-173 8-6 1-12-1-16-5-5-4-7-9-8-15 0-6 2-12 6-16 4-5 9-7 15-8 39-3 125-8 164-8 8 0 13 0 16 0 88 9 123 52 136 76 28 53 58 252 67 324 0 6-1 12-5 16z m-242-311c23 2 44 12 60 29 18 18 28 43 28 68l15 256c0 3 0 6 0 10 0 52-42 95-95 95-52 0-95-43-95-95l-16-186-180-41c-27-6-48-26-56-52l-1-4-40-272c0-3-1-6-1-8 0-27 23-50 50-50 23 0 43 17 48 40l0 0 67 203 212 7 4 0z m-54 42l-193-5-1 0-78-236 0-2c-1-3-3-4-5-4-3 0-6 2-6 5 0 0 0 0 0 1l7 39-1 0 33 223 2 10c3 10 11 17 21 19l213 49 19 220 0 2c0 28 23 50 51 50s51-22 51-50c0-2 0-4-1-6l0-1-14-256 0-2c0-15-5-28-15-38-10-10-24-16-38-16l-46-1 1-1z m-223 496c0 114-92 206-205 206s-205-92-205-206 92-205 205-205 205 92 205 205z m-40 0c0-91-74-165-165-165-91 0-165 74-165 165 0 91 74 166 165 166 91 0 165-74 165-166z m-71 4h-84v101c0 11-9 20-20 20s-20-9-20-20v-121c0-11 9-20 20-20h104c11 0 20 9 20 20 0 11-9 20-20 20z" horiz-adv-x="1000" />

<glyph glyph-name="grua" unicode="&#xe83f;" d="M960 242l-689 559c-20 16-44 26-72 26-1 0-3 0-4-1-57-2-103-48-106-104-2-37 14-70 40-92l14-15v-159h-70v-36h0v-53c0-17 14-32 31-35v-3c0-19-9-37-23-50l-14-12c-32-28-51-69-51-111 0-82 67-148 148-148h6c82 0 148 66 148 148 0 33-27 59-60 59-32 0-59-26-59-59 0-16-13-29-29-29h-6c-16 0-29 13-29 29 0 8 4 16 10 22l14 12c40 35 63 86 63 139v4c16 3 28 17 28 34v53h0v36h-70v119l308-334c15-17 23-40 20-62l-32-306h394l110 299c9 25 1 53-20 70z m-774 87c0-43-18-83-51-112l-14-12c-14-13-22-31-22-49 0-36 29-66 65-66h6c36 0 65 30 65 66 0 13 11 23 24 23 13 0 23-10 23-23 0-62-50-112-112-112h-5c-62 0-112 50-112 112 0 32 13 63 38 84l14 12c22 20 35 48 35 77v2h47v-2z m28 90v-51h-105v51h34 37 34z m720-230l-98-267h-305l26 251c4 37-8 74-33 101l-359 389-2 3-3 2c-15 13-23 31-22 51 2 32 27 57 59 59 1 0 1 0 2 0 19 0 32-8 40-15l0 0 1 0 689-559 0-1 1 0c4-4 6-9 4-14z" horiz-adv-x="1000" />

<glyph glyph-name="ubicacion1" unicode="&#xe840;" d="M457 596c0-58 48-106 106-106 59 0 106 48 106 106 0 28-11 55-31 75-20 20-47 31-75 31-58 0-106-47-106-106z m41 0c0 36 30 65 65 65s65-29 65-65c0-36-29-65-65-65s-65 29-65 65z m253 1c0 35-10 69-29 98 0 1-1 2-2 3-33 50-85 81-144 85l-2 0c-1 0-3 0-4 0-3 0-5 1-7 1h0c-2 0-4 0-6-1-2 0-4 0-5 0l-1 0c-59-4-111-35-144-85-1 0-2-2-3-3-18-29-28-63-28-98l0-1 0-2c0-34 10-68 28-97l1-1c2-4 5-8 7-11l116-158c9-11 21-18 35-18 14 0 27 7 35 18l116 158c3 3 5 7 8 11l1 1c18 29 28 63 28 97l0 2 0 1z m-188 149l1-3c1 0 3 0 4 0 2 0 3-1 4-1l1 0c22-1 44-8 63-19 0 0 1 0 2 0 44-27 73-78 72-130l0-1c0 0 0-1 0-2l0 0c-1-24-8-48-21-69-2-4-5-8-8-12l-116-158c0 0-1-1-2-1 0 0-1 1-2 1l-116 158c-2 4-5 8-8 12-12 21-19 45-20 69l0 0c0 1 0 2 0 2l0 1c-1 52 27 103 72 130 1 0 1 0 2 0 19 11 41 18 63 19l0 0c2 0 3 1 4 1 2 0 4 0 5 0l0 3 0 0z m52-528h-278c-12 0-25 5-34 14-8 9-13 21-13 33 0 25 21 45 46 45h137l-30 41h-105c-24 0-47-9-64-26-17-17-25-39-25-62 1-48 40-86 87-86h277c51 0 92-40 93-90 0-35-19-68-50-85-18-8-37-12-56-12l-28-1h-222c-7 18-24 31-43 32-16 2-31-4-42-15-11-11-17-27-15-42 2-27 25-47 52-47 21 0 40 12 48 32l222 0 45 2c18 0 35 4 52 12 47 23 78 71 78 124 0 35-14 68-39 93-25 25-58 38-93 38z m-331-249c0 9 7 17 16 17 1 0 1 0 2 0 4 0 8-1 12-4 3-3 5-8 5-13 0-8-5-17-16-18l0 0c-4 0-9 1-13 5-4 3-6 8-6 13z" horiz-adv-x="1000" />

<glyph glyph-name="videova" unicode="&#xe841;" d="M413 190c5-3 10-4 15-4 5 0 9 1 13 3l105 52c10 5 16 15 16 26 0 11-6 21-16 26l-105 52c-9 5-19 4-28-1-8-5-14-14-14-25v-104c1-10 6-19 14-25z m23 117l80-40-80-39v79z m519 157h-27c-22 0-39-18-39-40v-8l-75-40c-8 11-21 17-35 17h-20v57c0 22-18 40-40 40h-20c24 23 39 56 39 92 0 71-58 129-129 129s-129-58-129-129c0-36 15-69 39-92h-122c24 23 39 56 39 92 0 72-58 129-130 129s-129-57-129-129c0-36 15-69 39-92h-23c-22 0-39-18-39-39v-110c0 0 1 0 1 0 12 0 24-1 35-2v111c0 2 1 3 3 3h526c2 0 3-1 3-3v-366c0-2-1-3-3-3h-296c0-3 1-6 1-8 0-10-1-19-2-29h297c22 0 40 18 40 40v57h20c15 0 29 8 37 21l73-40v-12c0-22 17-40 39-40h27c21 0 39 18 39 40v315c0 21-18 39-39 39z m-649 26c-50 0-92 41-92 92s42 93 92 93 93-42 93-93-42-92-93-92z m303 0c-51 0-92 41-92 92s41 93 92 93c51 0 92-42 92-93s-41-92-92-92z m177-306c0-3-4-6-7-6h-20v179h20c4 0 7-3 7-7v-166z m103-20l-67 36v139l67 35v-210z m68-54c0-2-1-3-3-3h-26c-2 0-3 1-3 3v314c0 2 1 3 3 3h26c2 0 3-1 3-3v-314z m-606 155h-228-72l-7 39c-1 2-2 3-4 3h-30c-2 0-4-2-3-4l32-159c0-1 0-2 0-3l9-46 0-1c6-22 29-40 52-40h7c-14-5-23-17-23-32 0-18 15-33 34-33 18 0 33 15 33 33 0 15-9 27-22 32h104c-13-5-22-17-22-32 0-18 15-33 33-33s34 15 34 33c0 15-9 27-22 32h36c8 0 16 7 16 16 0 8-7 16-16 16h-192c-8 0-19 8-21 15l-2 8h184c25 0 47 15 55 39l38 112c1 2-1 5-3 5z" horiz-adv-x="1000" />

<glyph glyph-name="warning" unicode="&#xe842;" d="M281 124h441l-220 373-221-373z m61 34l158 268 158-268h-316z m648-140l-448 757c-18 30-62 30-80 0l-448-757c-18-32 4-71 40-71h896c35 0 58 40 40 71z m-764 75l276 465 275-465h-551z" horiz-adv-x="1000" />

<glyph glyph-name="buzon" unicode="&#xe843;" d="M795 791h-38c-12 35-45 59-83 59h-117c-16 0-30-13-30-29v-30h-322c-113 0-205-92-205-205v-353c0-16 13-29 29-29 8 0 309 0 323 0v-295h-88c-16 0-30-14-30-30s14-29 30-29h117 176 117c16 0 29 13 29 29s-13 30-29 30h-88v295h385c16 0 29 13 29 29v353c0 113-92 205-205 205z m-209 0h88c16 0 29-13 29-29s-13-29-29-29h-88v58z m-29-293c16 0 29-13 29-29s-13-29-29-29-30 13-30 29 14 29 30 29z m-205-236c-21 0-284 0-293 0v324c0 81 65 147 146 147s147-66 147-147v-324z m175-353h-117v295h117v-295z m414 353c-23 0-517 0-531 0v324c0 58-23 110-62 147h179v-29-152c-34-12-58-45-58-83 0-48 39-88 88-88s88 40 88 88c0 38-25 71-59 83v122h88c38 0 71 25 83 59h38c81 0 146-66 146-147v-324z m-677 119h-117c-17 0-30-13-30-29s13-29 30-29h117c16 0 29 13 29 29s-13 29-29 29z" horiz-adv-x="1000" />

<glyph glyph-name="cancelar" unicode="&#xe844;" d="M11 341c0 267 222 489 489 487 269 0 489-222 489-490 0-268-222-488-489-488-269 0-489 222-489 491z m797-219c95 114 109 341-44 489-153 148-376 125-480 36 174-175 349-350 524-525z m-92-92c-175 176-350 351-525 525-107-127-89-352 40-483 130-130 357-149 485-42z" horiz-adv-x="1000" />

<glyph glyph-name="mascarilla" unicode="&#xe845;" d="M209 352l14 66c2 24 7 47 19 68 26 48 78 64 126 38 44-23 89-45 137-60 35-11 71-19 107-10 14 4 27 11 41 16 11 4 21 11 32 14 16 5 30 0 40-13 29-39 53-79 64-126l13 30c21 59 31 120 21 182-14 89-65 152-142 194-68 36-140 47-214 21-33-11-61-29-86-51-8-7-16-10-26-10-30 0-58-5-85-17-62-27-93-78-102-143-7-48-2-108 14-143s27-56 27-56z m-30-12c-53 88-61 181-26 276 27 73 86 110 161 123 2 1 4 1 6 1 28-1 48 13 70 28 92 63 191 64 290 19 91-42 151-111 173-211 14-66 5-132-15-197l-21-57c29-7 44-26 49-54 6-29 2-59-8-87-10-27-31-40-57-47-8-2-11-5-12-12-14-81-48-149-117-195-51-35-108-46-168-45-57 0-112 12-160 45-62 41-96 102-113 173-4 20-8 34-31 40-27 7-42 30-47 58-4 25-8 51-1 77 4 17 13 31 31 41l7 3-11 21z m81-49c30-33 61-65 91-98 5-5 9-6 16-3 26 8 53 17 79 25 33 11 67 14 101 6 34-9 68-21 102-31 7-2 11-2 16 4 29 34 58 68 88 102 3 5 11 15 15 21 0 0-7 31-12 40-5 9-29 53-45 78-15 23-15 22-40 9-15-8-32-16-49-20-40-10-79-5-118 7-53 16-103 39-151 65-32 17-63 8-81-23-4-6-5-10-7-17l-34-137 29-28z m399-174c-3 11-4 21-8 31-1 4-5 8-9 10-28 10-56 19-85 28-27 8-55 11-82 3-35-9-70-21-104-32-2-1-5-2-5-4-3-12-6-23-9-35 13 0 24 0 35 0 10 0 15-5 16-14 1-9-5-16-14-17-4-1-9-1-13-1-32-2-32-2-39-34-2-7 0-11 7-13 14-6 27-12 40-18 9-4 13-12 10-21-4-9-13-12-24-8-14 6-27 13-42 19-2-5-2-9-4-13-5-10-1-18 8-25 14-10 28-22 44-30 50-27 103-33 158-28 52 5 98 22 138 56 15 14 16 20 5 39-14-6-27-12-41-18-11-4-20-1-24 8-3 9 0 17 11 22 14 6 27 12 41 17 5 3 7 5 6 12-3 8-4 17-7 26-1 3-5 7-9 7-11 2-22 2-33 2-12 1-18 7-18 17 1 10 8 15 20 15 9 0 19-1 31-1z m56-98c2 1 3 1 3 1 1 2 3 4 4 6 21 36 32 74 38 114 2 18 7 23 25 24 21 1 41 15 45 34 3 19 5 38 5 58 1 15-8 27-20 37-8 5-14 5-21-1-3-3-6-6-9-9-33-38-66-76-99-115-3-3-4-10-3-14 6-24 11-48 17-72 5-21 10-42 15-63z m-417-1c0 1 1 1 3 1 0 1 1 2 1 3 10 45 21 90 31 135 1 4-2 10-5 13-34 38-69 75-104 113-9 10-21 11-31 1-4-5-10-11-10-17-1-20-1-41 2-61 4-27 21-41 49-42 14-1 19-7 22-21 6-28 13-55 21-82 5-15 13-28 21-43z m102 264c0-9 0-18 0-28-1-9-7-15-16-15-8 0-16 6-16 15 0 20 0 40 0 60 0 9 6 14 16 14 9 0 15-5 15-14 1-10 0-21 0-32 0 0 1 0 1 0z m248 0c0-9 0-18 0-28 0-9-7-15-16-15-8 0-15 6-16 15 0 20 0 40 0 60 1 9 7 14 16 14 9 0 15-5 16-14 0-10 0-21 0-32 0 0 0 0 0 0z" horiz-adv-x="1000" />

<glyph glyph-name="aceptado" unicode="&#xe846;" d="M913 260c28-6 48-22 68-40 28 55 65 189-217 205 0 0 10 68 48 126 38 59 58 159-19 215-78 56-90 28-97-1-4-16-30-128-30-128s-176-182-206-235c0 0-22-32-60-32s-137 0-137 0-113-139-15-331c0 0 1-9 22-9 20 0 153 0 153 0s42-48 143-105c0 0 64-29 120-12 0 0 12-10 39-10 26 0 109-16 125 72-12 10-25 17-40 20-13 2-8 22 5 19 19-3 35-13 50-26 21 7 58 25 61 78-1 1-2 1-2 2-15 14-31 25-51 29-13 2-7 21 5 19 23-4 42-17 59-33 21 10 61 41 31 114 0 0 1 2 3 5-18 17-37 33-63 38-13 3-7 22 5 20z m-688 130h-175c-113-200 0-380 0-380h180c-139 190-5 380-5 380z" horiz-adv-x="1000" />

<glyph glyph-name="accesorios" unicode="&#xe847;" d="M1000 192h-389c-11 31-33 56-62 71-17 10-37 16-59 16-20 0-40-6-57-15-30-15-52-40-64-71h-1c-17 0-32 15-32 33v20c0 1 1 1 1 2v0c0 0 0 1-1 2v97c0 18 15 34 32 34h632v67h-263v132h181l82-87v96l-46 48c-6 7-14 10-23 10h-397c-8 0-17-3-22-10 0 0-209-216-210-217-18-18-29-44-29-73v-81h-96c-10 0-18 8-18 18v15c23 8 39 29 39 54 0 31-25 57-57 57s-57-26-57-57c0-25 16-46 39-54v-51c0-10 8-18 18-18h132v-4c0-54 40-98 91-101 11-59 63-104 126-104 63 0 115 45 126 104h384v67z m-453 388h126v-132h-253l127 132z m-57-494c-33 0-59 28-59 63 0 35 27 63 59 63 33 0 60-28 60-63s-27-63-60-63z" horiz-adv-x="1000" />

<glyph glyph-name="aceite" unicode="&#xe848;" d="M944 400l-28-67-5-17 3-16 14-16 19-4c0 0 14 3 16 3 1 1 10 8 10 8l10 20-3 20-36 69z m-56 119l-297-103-52 31h-139v19h59v50h-168v-50h59v-19l-158 1-98 58-78-81 165-216 2-28 358 2 343 276 54-31 26 42-76 49z m-657-286l-50 56v109l50 0v-165z" horiz-adv-x="1000" />

<glyph glyph-name="accion-guardar" unicode="&#xe849;" d="M914 672c-31 31-62 62-92 92-19 19-39 27-66 27-203 0-406 0-609 0-53 0-88-35-88-88 0-236 0-472 0-706 0-53 35-88 88-88 117 0 236 0 353 0s236 0 353 0c53 0 88 36 88 88 0 203 0 406 0 609 0 25-8 47-27 66z m-561 8c0 20 8 28 27 28 79 0 159 0 239 0 20 0 28-8 28-28 0-30 0-60 0-89 0-24-8-30-30-32-39 0-78 0-117 0-39 0-80 0-119 0-20 0-28 8-28 29 0 31 0 60 0 92z m474-688c-110 0-219 0-327 0-108 0-214 0-322 0-28 0-34 6-34 33 0 216 0 431 0 647 0 28 6 33 34 33 22 0 44 0 64 0 21 0 27-8 27-28 0-46 0-93 0-138 0-39 26-64 64-66 111 0 222 0 333 0 39 0 64 27 64 66 0 47 0 94 0 142 0 8 4 21 9 22 8 2 20 0 27-6 28-27 54-53 81-81 5-5 8-14 8-22 0-192 0-385 0-577 1-17-7-25-28-25z" horiz-adv-x="1000" />

<glyph glyph-name="adjuntar" unicode="&#xe84a;" d="M190-92c-45 0-88 18-120 50-67 67-67 175 0 241l526 527c43 43 99 66 159 66 60 0 117-24 159-66 43-42 66-99 66-159 0-60-23-116-66-159l-414-415c-13-12-33-12-45 0-13 13-13 33 0 46l414 414c31 31 47 71 47 114 0 43-16 83-47 114-30 30-71 47-114 47-43 0-83-17-114-47l-526-527c-42-41-42-109 0-151 40-40 110-40 150 0l354 354c10 10 15 23 15 37 0 13-5 26-15 36-20 20-53 20-73 0l-241-242c-13-12-33-12-45 0-13 13-13 33 0 45l241 242c45 45 118 45 163 0 22-22 34-51 34-82 0-30-12-60-34-81l-353-354c-32-32-75-50-121-50z" horiz-adv-x="1000" />

<glyph glyph-name="alerta-plano" unicode="&#xe84b;" d="M500 261c-9 0-19-3-25-11-6-6-11-16-11-25 0-11 3-20 11-27 8-6 16-9 25-9 9 0 17 3 25 9 8 7 11 16 11 27 0 9-3 19-11 25-6 8-16 11-25 11z m2 284c-11 0-21-3-27-11-6-7-11-17-11-29 0-10 0-25 2-47l7-113c2-14 4-25 8-32 3-8 10-11 17-11 8 0 15 3 18 11 3 7 6 17 7 31l10 115c1 11 1 22 1 32 0 17-1 31-6 40-5 10-12 14-26 14z m-2 297c-272 0-492-220-492-492 0-272 220-492 492-492 272 0 492 220 492 492 0 272-220 492-492 492z m364-723h-728c-8 0-16 4-20 12-5 8-3 16 0 24l364 584c4 8 12 11 20 11 8 0 16-5 20-11l363-584c3-3 5-10 5-14 0-13-11-22-24-22z" horiz-adv-x="1000" />

<glyph glyph-name="alerta" unicode="&#xe84c;" d="M954-38l-411 683c-11 17-29 27-49 27s-39-10-49-27l-412-683c-11-17-11-39-1-57 11-18 30-30 51-30h822c21 0 40 12 50 30 10 18 10 40-1 57z m-460 475c24 0 44-14 44-37 0-72-9-176-9-248 0-19-20-27-35-27-19 0-36 8-36 27 0 72-8 175-8 248 0 23 19 37 44 37z m1-447c-27 0-47 22-47 47 0 25 20 46 47 46 25 0 46-21 46-46 0-25-21-47-46-47z" horiz-adv-x="1000" />

<glyph glyph-name="cliente-a" unicode="&#xe84d;" d="M696 234l-14 5 12 10c71 57 111 143 111 234 0 166-136 302-302 302-167 0-302-136-302-302 0-91 40-176 110-233l12-10-15-5c-58-21-113-50-162-88-49-39-92-84-127-137-7-10-10-23-7-35 2-12 9-22 19-29 8-5 17-8 26-8 15 0 30 8 39 21 90 135 242 216 404 216 163 0 314-80 405-215 6-10 17-17 29-20 12-2 24 0 35 7 10 7 17 17 19 30 3 12 0 24-7 35-69 103-168 180-285 222z m-193 39c-116 0-210 94-210 210s94 209 210 209c116 0 210-94 210-209s-94-210-210-210z" horiz-adv-x="1000" />

<glyph glyph-name="enfadado" unicode="&#xe84e;" d="M330 489c16 0 30-21 30-44 0-23-14-43-30-43-16 0-30 20-30 43 0 23 14 44 30 44m0 35c-36 0-65-35-65-79 0-43 29-79 65-79 36 0 65 36 65 79 0 44-29 79-65 79l0 0z m170 279c61 0 121-12 176-35 54-23 103-56 144-98 42-41 75-90 97-144 24-56 36-115 36-176s-12-121-36-177c-22-53-55-102-97-144-41-41-90-74-144-97-56-23-115-35-176-35s-121 12-177 35c-53 23-102 56-144 97-41 42-74 90-97 144-23 57-35 116-35 177s12 121 35 176c23 54 56 103 98 144 41 42 90 75 144 97 56 24 115 36 176 36m0 47c-276 0-500-224-500-500s224-500 500-500 500 224 500 500-224 500-500 500l0 0z m170-361c16 0 30-21 30-44 0-23-14-43-30-43s-30 20-30 43c0 23 14 44 30 44m0 35c-36 0-65-35-65-79 0-43 29-79 65-79s66 36 66 79c0 44-30 79-66 79l0 0z m-26-364c-80 57-187 57-267 0-8-6-20-4-26 3h0c-7 9-6 22 4 29 93 66 218 66 311 0 9-7 11-20 4-29l0 0c-7-7-18-9-26-3z m-234 385c-6 0-12 3-16 8-1 2-3 4-5 6-19 19-60 29-111 27-11 0-20 8-20 19s8 20 19 20c44 2 104-3 139-38 4-3 7-7 10-11 6-9 4-21-5-28-3-2-7-3-11-3z m180 0c-4 0-8 1-11 3-9 7-11 19-5 28 3 4 6 8 10 11 35 35 95 40 139 38 11 0 19-9 19-20 0-11-9-19-19-19-1 0-1 0-1 0-51 2-92-8-111-27-2-2-4-4-5-6-4-5-10-8-16-8z" horiz-adv-x="1000" />

<glyph glyph-name="alegre" unicode="&#xe84f;" d="M330 489c16 0 30-21 30-44 0-23-14-43-30-43-16 0-30 20-30 43 0 23 14 44 30 44m0 35c-36 0-65-35-65-79 0-43 29-79 65-79 36 0 65 36 65 79 0 44-29 79-65 79l0 0z m170 279c61 0 121-12 176-35 54-23 103-56 144-98 42-41 75-90 97-144 24-56 36-115 36-176s-12-121-36-177c-22-53-55-102-97-144-41-41-90-74-144-97-56-23-115-35-176-35s-121 12-177 35c-53 23-102 56-144 97-41 42-74 90-97 144-23 57-35 116-35 177s12 121 35 176c23 54 56 103 98 144 41 42 90 75 144 97 56 24 115 36 176 36m0 47c-276 0-500-224-500-500s224-500 500-500 500 224 500 500-224 500-500 500l0 0z m170-361c16 0 30-21 30-44 0-23-14-43-30-43s-30 20-30 43c0 23 14 44 30 44m0 35c-36 0-65-35-65-79 0-43 29-79 65-79s66 36 66 79c0 44-30 79-66 79l0 0z m-400-260c-17 0-30-15-28-32 16-128 125-228 258-228s242 100 258 228c2 17-11 32-28 32h-460z" horiz-adv-x="1000" />

<glyph glyph-name="triste" unicode="&#xe850;" d="M330 489c16 0 30-21 30-44 0-23-14-43-30-43-16 0-30 20-30 43 0 23 14 44 30 44m0 35c-36 0-65-35-65-79 0-43 29-79 65-79 36 0 65 36 65 79 0 44-29 79-65 79l0 0z m212-292c-15 0-31-2-49-6-36-8-67-23-88-42-6-6-8-16-5-24 3-8 11-14 20-14 5 0 11 2 15 6 26 25 72 36 108 36 3 0 5 0 8 0 20-1 36-6 42-14 5-5 11-7 17-7 5 0 10 1 13 5 8 6 10 16 5 25-8 17-39 35-86 35l0 0z m-42 618c-276 0-500-224-500-500s224-500 500-500 500 224 500 500-224 500-500 500l0 0z m0-953c-61 0-120 12-176 35-54 23-103 56-144 98-42 41-75 90-98 144-23 56-35 115-35 176s12 121 35 176c23 54 56 103 98 144 41 42 90 75 144 97 56 24 115 36 176 36s121-12 176-35c54-23 103-56 144-98 42-41 75-90 97-144 24-56 36-115 36-176s-12-121-36-177c-22-53-55-102-97-144-41-41-90-74-144-97-55-23-115-35-176-35l0 0z m170 592c16 0 30-21 30-44 0-23-14-43-30-43-16 0-30 20-30 43 0 23 14 44 30 44m0 35c-36 0-65-35-65-79 0-43 29-79 65-79 36 0 66 36 66 79 0 44-30 79-66 79l0 0z" horiz-adv-x="1000" />

<glyph glyph-name="indiferente" unicode="&#xe851;" d="M330 489c16 0 30-21 30-44 0-23-14-43-30-43-16 0-30 20-30 43 0 23 14 44 30 44m0 35c-36 0-65-35-65-79 0-43 29-79 65-79 36 0 65 36 65 79 0 44-29 79-65 79l0 0z m170 326c-276 0-500-224-500-500s224-500 500-500 500 224 500 500-224 500-500 500l0 0z m0-953c-61 0-120 12-176 35-54 23-103 56-144 98-42 41-75 90-98 144-23 56-35 115-35 176s12 121 35 176c23 54 56 103 98 144 41 42 90 75 144 97 56 24 115 36 176 36s121-12 176-35c54-23 103-56 144-98 42-41 75-90 97-144 24-56 36-115 36-176s-12-121-36-177c-22-53-55-102-97-144-41-41-90-74-144-97-55-23-115-35-176-35l0 0z m170 592c16 0 30-21 30-44 0-23-14-43-30-43-16 0-30 20-30 43 0 23 14 44 30 44m0 35c-36 0-65-35-65-79 0-43 29-79 65-79 36 0 66 36 66 79 0 44-30 79-66 79l0 0z m-42-314h-251c-12 0-21-9-21-21s9-22 21-22h251c12 0 22 10 22 22s-10 21-22 21z" horiz-adv-x="1000" />

<glyph glyph-name="operario" unicode="&#xe852;" d="M973 10c-68 102-165 177-280 218l-31 12 26 20c68 56 107 138 107 227 0 161-131 292-292 292-161 0-292-131-292-292 0-88 38-170 106-226l25-21-31-11c-57-20-111-49-159-86-49-38-91-83-125-134-6-9-8-18-6-28 2-10 8-18 16-23 5-4 13-6 20-6 12 0 24 6 30 16 67 100 167 171 280 203v-75h-58l-69-129c-8-15-2-34 13-42 4-3 10-4 14-4 12 0 22 6 28 16l52 97h51 31 134 31 52l51-97c6-10 17-16 28-16 5 0 10 1 14 4 16 8 21 27 13 42l-69 129h-58v77c116-30 219-102 287-204 6-8 14-14 23-16 10-1 20 0 28 6 8 5 13 13 15 23 3 10 1 20-5 28z m-470 696c100 0 185-68 211-160h-55c-31 55-90 90-155 90-65 0-123-35-156-90h-57c27 92 111 160 212 160z m60-610h-133v88c23 3 46 5 70 5 22 0 42-2 63-4v-89z m-60 171c-120 0-218 97-220 217h105l9 18c18 43 60 71 107 71s89-28 108-71l8-18h102c-2-120-99-217-219-217z" horiz-adv-x="1000" />

<glyph glyph-name="taxi" unicode="&#xe853;" d="M920 343l-217 38-52 148c-10 29-37 48-68 48h-13l-32 108c-3 9-11 15-21 15h-168c-9 0-17-6-20-15l-36-108h-9c-30 0-58-19-68-48l-52-150-98-39c-28-11-45-37-45-67v-158c0-12 9-22 21-22h94l1-5c12-51 58-87 111-87s98 36 110 87l2 5h283l2-5c12-51 57-87 110-87s98 36 110 87l2 5h92c11 0 21 10 21 22v158c-1 34-25 64-60 70z m-337 192c13 0 24-8 28-20l46-131h-321l52 151h195z m-219 122h138l24-80h-188l26 80z m-116-614c-40 0-72 32-72 71 0 39 32 71 72 71s71-32 71-71c0-39-32-71-71-71z m507 0c-40 0-72 32-72 71 0 40 32 71 72 71s71-31 71-71c0-39-32-71-71-71z m182 92h-71l-1 6c-12 51-58 87-110 87-53 0-98-36-111-87l-1-6h-284l-1 6c-13 51-58 86-110 86s-98-35-111-86l-1-5h-73v137c0 12 7 23 18 27l108 43c5 2 10 7 12 13l55 159c5 12 16 20 28 20h59l-57-165c-3-7-1-14 3-20 3-5 10-9 17-9h379l0 0 228-40c14-2 24-14 24-28v-138z" horiz-adv-x="1000" />

<glyph glyph-name="apoyoelevadores" unicode="&#xe854;" d="M981 142l0 0c-8 29-29 53-58 67l-1 1-215 84 0 0c-21 8-47 12-71 10-13-1-25-3-37-6l-310 221h-162l167-282c-10-2-19-4-28-6-36-7-73-15-109-22l-2 0c-42-9-78-33-101-68-24-35-33-77-25-119l2-16c2-8 9-14 17-14h645l149 0c1 0 1 0 2 0 5-1 10-1 16-1 41 0 75 17 100 51 23 31 31 67 21 100z m-745 315h33l247-176-141-28c-6-1-11-2-16-3l-123 207z m666-373l0 0c-13-18-29-24-52-21l-2 0h-1l-154 1h-571c-13 0-21 12-16 24 12 25 35 44 64 50l2 0c36 7 71 15 107 22 43 8 85 17 127 25h1l171 34c7 1 15 3 23 5 14 4 28 7 40 8 14 0 29-2 41-6 64-24 127-48 204-80 14-5 23-14 26-25 3-11-1-24-10-37z m-562 469l41 114c6 17-3 35-19 40-16 6-34-2-40-18l-26-73h-194l-26 73c-6 16-24 24-40 18-17-5-25-23-19-40l41-114h282z" horiz-adv-x="1000" />

<glyph glyph-name="antiniebla" unicode="&#xe855;" d="M942 239c-297 0-594 0-889 0-6 0-14 0-20 0-20-3-30-14-33-30-3-18 9-31 27-37 11-3 21-2 32-2 291 0 583 0 874 0 26 0 48 7 67 25 0 7 0 11 0 18-12 20-33 26-58 26z m-765 139c220 2 440 0 667 0-19 53-53 81-102 89-25 3-34 14-44 35-67 154-267 176-367 42-11-16-23-24-43-27-66-9-111-45-135-109-8-25-1-30 24-30z m-58-103c129 0 259 0 387 0 135 0 271 0 405 0 23 0 44 8 44 33 0 25-19 36-42 36-5 0-8 0-13 0-259 0-520 0-780 0-26 0-54-3-54-36 0-33 28-33 53-33z m704-141c-185 0-370 0-556 0-25 0-47-3-48-32-2-33 23-36 50-35 90 0 181 0 272 0 95 0 189 0 284 0 23 0 48 2 48 31 2 33-23 36-50 36z" horiz-adv-x="1000" />

<glyph glyph-name="apagar" unicode="&#xe856;" d="M796 574c-54 54-120 91-192 109v-131c38-14 73-37 103-67 56-55 86-129 86-207 0-78-30-152-86-207s-129-86-207-86c-78 0-152 30-207 86-55 55-86 129-86 207 0 78 31 152 86 207 30 30 65 53 104 67v131c-73-18-139-55-193-109-79-79-122-184-122-296s43-217 122-296c79-79 184-122 296-122s217 43 296 122c79 79 122 184 122 296s-43 217-122 296z m-296-157l0 0c-41 0-75 34-75 75v273c0 41 34 75 75 75h0c41 0 75-34 75-75v-273c0-41-34-75-75-75z" horiz-adv-x="1000" />

<glyph glyph-name="area-acceso-entrada" unicode="&#xe857;" d="M414 316c0-10 8-18 17-18h58c9 0 17 8 17 18 0 9-8 17-17 17h-58c-9-2-17-8-17-17z m419 473h-250v33c0 5-3 11-6 14-5 3-10 5-14 3l-338-91c-8-1-12-9-12-15v-38-17-56-49-67c-15 0-30 0-44 0-14 0-19-4-19-18 0-18 0-35 0-52 0-22 2-23 23-23 13 0 25 0 38 0v-466c0-8 6-16 14-17l338-68c1 0 1 0 3 0 3 0 7 2 11 4 3 3 6 7 6 12v33h155c0 0 0 0 0 0h51 9 33c10 0 17 8 17 17v845c0 8-6 16-15 16z m-283-891l-303 61v452c22 0 42 0 64 0 0-19 0-36 0-52 0-6 3-15 8-17 4-1 15 0 20 3 44 33 86 66 128 97 13 10 13 22 0 31-42 33-84 66-128 97-5 3-14 7-20 3-5-1-10-10-10-17-1-17 0-33 0-51-6 0-11 0-14 0-17 0-32 0-50 0v67 48 58 17 24l303 81v-902z m266 46h-24c0 0 0 0 0 0h-51-38-119v48h166c9 0 17 8 17 17v682c0 9-8 17-17 17h-167v48h231v-812z m-233 83v646h150v-648h-150z" horiz-adv-x="1000" />

<glyph glyph-name="area-exteriores" unicode="&#xe858;" d="M400 825c2-2 3-3 5-5 31-17 43-43 36-72-8-29-32-46-66-46-66 0-131 0-197 0-9 0-17 0-28 0 0-235 0-466 0-700 231 0 464 0 700 0 0 36 0 71 0 107 0 21 0 41 0 61 0 33 17 55 47 64 26 8 53-4 70-31 2-3 5-6 6-9 0-92 0-183 0-275-17-33-43-44-81-44-264 2-529 0-794 0-51 0-73 22-73 73 0 265 0 530 0 794 0 38 9 64 44 81 111 2 222 2 331 2z m277-233c-47 0-89 0-133 0-42 0-72 28-74 67 0 39 30 69 72 69 100 0 200 0 302 0 44 0 72-30 72-73 0-92 0-183 0-275 0-42-28-72-68-74-40 0-68 30-70 74 0 37 0 73 0 117-9-8-15-14-20-19-120-119-239-236-360-355-20-18-42-29-70-21-26 7-44 25-50 51-6 28 5 49 25 67 78 77 158 153 236 232 45 46 91 92 138 140z" horiz-adv-x="1000" />

<glyph glyph-name="anotar" unicode="&#xe859;" d="M966 298c-19 0-35-15-35-34v34c0 19-15 35-34 35s-35-16-35-35v35c0 19-15 34-34 34s-35-15-35-34v138c0 19-15 34-34 34s-35-15-35-34v-328c-20 0-37 14-40 34l-23 125c-3 18-19 31-37 31-21 0-38-17-38-38v-11c0-2 0-4 1-6l31-186c2-12 7-23 14-32l43-53c9-12 15-28 15-43v-114h241v45c0 15 5 31 15 43l39 48c10 12 15 28 15 43v235c0 19-15 34-34 34z m0 0m-276 133v40c0 38 31 69 69 69s69-31 69-69v-40c80 28 138 105 138 195 0 49-18 94-46 130l-231-188-63 63 24 24 41-40 204 166c-36 32-84 52-136 52-115 0-207-93-207-207 0-90 57-167 138-195z m0 0m230 325l56 46-21 27-60-48c9-8 17-16 25-25z m0 0m-679-324l-31-62-69-10 50-48-12-69 62 33 63-33-12 69 50 48-69 10z m0 0m0-327l-26-51-57-9 42-39-10-56 51 27 52-27-10 56 41 39-57 9z m0 0m-51 483l51 27 52-27-10 56 41 39-57 9-26 51-26-51-57-9 42-39z m0 0m207 262h-311c-47 0-86-39-86-86v-828c0-47 39-86 86-86h311c47 0 86 39 86 86v828c0 47-39 86-86 86z m-204-127l48 96 49-96 110-15-80-76 19-106-98 50-97-50 18 106-79 76z m127-729l19-106-98 50-97-50 18 106-79 76 110 15 48 96 49-96 110-15z m9 306l21-119-109 56-108-56 21 119-88 84 121 17 54 108 54-108 122-17z m0 0" horiz-adv-x="1000" />

<glyph glyph-name="atras-boton" unicode="&#xe85a;" d="M912 589c-42 73-100 131-173 173-73 43-153 64-239 64-86 0-166-21-239-64-73-42-131-100-173-173-43-73-64-153-64-239 0-86 21-166 64-239 42-73 100-131 173-173 73-43 153-64 239-64s166 21 239 64c73 42 131 100 173 173 43 73 64 153 64 239 0 86-21 166-64 239z m-261-429c7-8 12-17 12-28 0-11-4-20-12-28l-63-63c-8-8-18-12-28-12-11 0-20 4-28 12l-282 281c-8 8-12 17-12 28 0 11 4 20 12 28l282 281c7 8 17 12 27 12 11 0 21-4 28-12l63-63c8-8 12-17 12-28 0-10-4-20-12-27l-190-191 191-190z" horiz-adv-x="1000" />

<glyph glyph-name="sobreroto" unicode="&#xe85b;" d="M525 325l-61-230 19 212-54 117 103 161-83 101h-45l0 0h-326c-12 0-23-6-31-14 0 0 0 0 0 0-7-8-11-18-11-28v-587c0-11 4-21 11-28 0-1 0-1 0-1 8-8 19-13 31-13h98 258 32 59 88 54 255c12 0 23 5 31 13 0 0 0 0 0 1 7 7 11 17 11 28v586c0 11-4 21-11 29 0 0 0 0 0 0-8 8-19 13-31 13h-364l0 0h-43l80-109-112-145 42-106z m-87 318l50-61-99-155 58-126 0-12-341 354h332z m-360-31l252-262-68-71-50-51-134-140v524z m358-556h-330l136 142 50 52 67 70 85-89-8-175z m87 372l114 150-48 65h305l-345-358 13 41-39 102z m76-372h-88-32l43 140 119 124 253-264h-295z m323 32l-252 262 252 262v-524z" horiz-adv-x="1000" />

<glyph glyph-name="amortiguadores" unicode="&#xe85c;" d="M964 569h-28v57h28c16 0 28 12 28 28s-12 28-28 28h-28l0 0c0 62-51 113-113 113s-112-51-112-113l0 0h-31c-16 0-28-13-28-28s12-28 28-28h31v-57h-31c-16 0-28-12-28-28s12-28 28-28h31v-98c-1 0-1 0-2 0h-175v323c0 47-38 85-84 85h-334c-47 0-85-38-85-85v-792c0-46 38-84 85-84h334c46 0 84 38 84 84v301h373c16 0 29 12 29 28l0 0 0 0v238h28c15 0 28 13 28 28s-12 28-28 28z m-197 113c0 31 25 56 56 56s57-25 57-56l0 0h-113l0 0z m0-56h113v-57h-113v57z m-456 140v-848h-56v848h56z m-223-820v31l46 46c11 11 11 29 0 40-11 11-29 11-40 0l-7-6v79l46 46c11 11 11 29 0 40-10 10-28 10-39 0l-7-7v79l46 46c11 11 11 29 0 40-11 11-29 11-40 0l-6-7v79l46 46c11 11 11 29 0 40-11 11-29 11-40 0l-6-6v78l46 46c11 11 11 29 0 40-11 11-29 11-40 0l-6-6v48c0 16 12 28 28 28h82v-848h-81c-16 0-28 13-28 28z m362-28h-83v848h83c15 0 28-12 28-28v-31l-46-46c-11-11-11-29 0-40 5-5 13-8 20-8s14 3 20 8l6 7v-78l-46-46c-11-11-11-29 0-40 6-6 13-8 20-8s14 2 20 8l6 6v-79l-46-46c-11-11-11-29 0-40 6-5 13-8 20-8s15 3 20 8l7 7v-37-42l-47-46c-10-11-10-29 0-40 6-6 13-8 20-8 8 0 15 2 20 8l7 6v-79l-46-46c-11-11-11-29 0-40 5-5 12-8 20-8s14 3 20 8l6 7v-48c-1-16-14-29-29-29z m84 441h175c1 0 1 0 2 0v-56h-177v56z m346-56h-113v210h113v-210z" horiz-adv-x="1000" />

<glyph glyph-name="bandera" unicode="&#xe85d;" d="M936 553c-34 45-83 72-139 78-50 7-103 8-153 10-94 1-183 15-242 107 0 0-11 18-13 19s-3 2-5 0c-1-4-300-759-300-759-6-14 4-30 19-31l0 0c10-2 20 4 24 14 36 95 75 189 112 286 6 15 25 20 36 9 53-45 116-55 184-58 55-3 110-3 163-9 70-6 125-39 162-102 2 0 5 2 7 6 3 10 4 21 7 30 47 119 94 239 144 356 6 18 5 30-6 44z m-569 44c13 33 27 64 38 95 34-23 65-44 103-67-13-33-27-67-42-106-41 9-74 31-99 61-1 3 0 12 0 17z m0-331c-40 11-72 31-95 59-5 5-6 16-5 22 13 33 25 64 38 95 34-23 67-44 103-69-11-34-25-70-41-107z m306-28c-50 4-100 7-151 14 14 37 26 71 42 109-51 5-100 8-153 14 20 50 36 94 53 136 52-5 102-8 153-14-19-45-36-88-53-131 52-7 100-10 153-16-15-42-29-77-44-112z m199 165c-16-40-33-80-49-119-34 24-65 46-103 68 16 40 35 84 55 134-53 6-102 9-153 16 14 34 25 64 39 96 2 5 11 15 16 15 45-4 92-5 142-10-16-45-31-81-44-112 31-24 61-43 89-64 6-4 11-18 8-24z" horiz-adv-x="1000" />

<glyph glyph-name="bandera1" unicode="&#xe85e;" d="M182 729c43 10 84 22 125 30 53 11 104 1 154-10 33-7 66-14 99-16 60-5 110 15 147 63 4 5 7 9 11 12 8 9 19 12 30 8 11-3 18-11 20-23 12-62 23-125 36-187 12-60 24-120 37-179 4-18 0-31-15-42-44-30-92-49-144-60-62-13-120 3-178 17-50 12-99 14-149 0-27-7-54-17-81-26-6-2-6-6-5-11 26-126 52-253 78-379 4-20-4-35-21-39-18-4-32 6-36 28-25 121-50 242-75 363-29 143-59 285-88 428-1 6-3 13-3 20-3 17 7 31 23 33 16 3 30-6 34-23 0-3 1-6 1-7z m539-5c-71-45-109-56-186-48-32 3-64 10-94 18-86 23-166 6-246-27 20-99 40-197 60-296 3 1 5 2 7 2 4 2 7 3 11 4 43 19 88 30 134 33 48 4 95-7 141-18 30-6 61-13 92-12 46 0 90 16 131 39 8 5 11 10 9 19-13 56-24 113-36 169-8 38-16 77-23 117z" horiz-adv-x="1000" />

<glyph glyph-name="matricula" unicode="&#xe85f;" d="M905 567h-809c-48 0-87-39-87-86v-262c0-47 39-86 87-86h809c47 0 86 39 86 86v262c0 47-39 86-86 86z m-68-70c0-14-11-25-25-25h-92c-14 0-24 11-24 25 0 13 10 24 24 24h92c14 0 25-11 25-24z m-532 0c0-14-11-25-25-25h-92c-14 0-24 11-24 25 0 13 10 24 24 24h92c14 0 25-11 25-24z m600-341h-809c-36 0-64 28-64 63v219h936v-219c0-35-28-63-63-63z m-726 53v72c0 1-4 5-12 11-7-6-11-10-11-11v-72c0-1 4-5 11-11 8 7 12 10 12 11z m-12 93c8 6 12 10 12 11v72c0 1-4 5-12 11-7-6-11-10-11-11v-72c0-1 4-5 11-11z m17 88h72c1 0 5 4 11 12-6 7-10 11-11 11h-72c-1 0-5-4-11-11 6-8 10-12 11-12z m72-187h-72c-1 0-5-4-11-11 7-8 10-11 11-11h72c1 0 5 3 11 11-6 7-10 11-11 11z m17 193c-8-6-11-10-11-11v-72c0-1 3-5 11-11 7 6 11 10 11 11v72c0 1-4 5-11 11z m0-105c-8-6-11-9-11-10v-73c0-1 3-4 11-10 7 6 11 9 11 10v73c0 1-4 4-11 10z m92-82v72c0 1-3 5-11 11-7-6-11-10-11-11v-72c0-1 4-5 11-11 8 7 11 10 11 11z m-11 93c8 6 11 10 11 11v72c0 1-3 5-11 11-7-6-11-10-11-11v-72c0-1 4-5 11-11z m16 88h73c1 0 5 4 11 12-7 7-10 11-11 11h-73c-1 0-4-4-10-11 6-8 10-12 10-12z m73-187h-73c-1 0-4-4-10-11 6-8 10-11 10-11h73c1 0 5 3 11 11-6 7-10 11-11 11z m16 193c-7-6-11-10-11-11v-72c0-1 4-5 11-11 8 6 12 10 12 11v72c0 1-4 5-12 11z m0-105c-7-6-11-9-11-10v-73c0-1 4-4 11-10 8 6 12 9 12 10v73c0 1-4 4-12 10z m93-82v72c0 1-4 5-11 11-8-6-11-10-12-11v-72c1-1 4-5 12-11 7 7 11 10 11 11z m-11 93c7 6 11 10 11 11v72c0 1-4 5-11 11-8-6-11-10-12-11v-72c0-1 4-5 12-11z m16 88h73c1 0 4 4 10 12-6 7-9 11-10 11h-73c-1 0-4-4-10-11 6-8 9-12 10-12z m73-187h-73c-1 0-4-4-10-11 6-8 9-11 10-11h73c1 0 4 3 10 11-6 7-9 11-10 11z m16 193c-7-6-11-10-11-11v-72c0-1 4-5 11-11 7 6 11 10 11 11v72c0 1-3 5-11 11z m0-105c-7-6-11-9-11-10v-73c0-1 4-4 11-10 7 6 11 9 11 10v73c0 1-3 4-11 10z m93-82v72c-1 1-4 5-12 11-7-6-11-10-11-11v-72c0-1 4-5 11-11 8 7 12 10 12 11z m-12 93c8 6 11 10 12 11v72c-1 1-4 5-12 11-7-6-11-10-11-11v-72c0-1 4-5 11-11z m17 88h72c1 0 5 4 11 12-6 7-10 11-11 11h-72c-1 0-5-4-11-11 6-8 10-12 11-12z m72-187h-72c-1 0-5-4-11-11 6-8 10-11 11-11h72c1 0 5 3 11 11-6 7-10 11-11 11z m17 193c-8-6-11-10-12-11v-72c1-1 4-5 12-11 7 6 11 10 11 11v72c0 1-4 5-11 11z m0-105c-8-6-11-9-12-10v-73c1-1 4-4 12-10 7 6 11 9 11 10v73c0 1-4 4-11 10z" horiz-adv-x="1000" />

<glyph glyph-name="barcelona" unicode="&#xe860;" d="M175 788c0 0-37 10-11-53 0 0 39-49 40-86s12-83 0-124c-12-41-19-49-22-75-3-27-19-56-46-83-26-26-25-50-22-65 3-14 4-34-1-54-6-21-12-46-8-65 5-19 11-40-14-54s-26-15-26-15 21-18 20-46c-2-28 1-54-11-77-11-22 83-80 83-80s40 23 66 15c27-7 11 10 24 18 13 9 26 11 23 19-4 8-35 26-30 44 5 18 73 114 131 127 57 13 82 25 99 26s40 11 47 13c6 2 27 2 38 15 11 14 20 19 39 24 19 5 46 51 64 63 19 11 57 26 66 38 9 12 44 44 66 53 22 9 31 22 46 35 15 12 34 25 40 37 6 11 6 18 21 26 15 8 37 28 27 69s-39 41-29 60c10 19 41 12 40 27-2 14-36 56-55 63-18 8-67 20-93-3s-51-62-84-50c-32 12-74 37-98 29s-50-36-73-21c-23 14-61 17-77 21-16 4-19 13 4 24 24 11-11 42-30 45-19 3-14-5-21-9-5-3-20-15-41 0-20 14-35 5-60 16-26 11-132 53-132 53z" horiz-adv-x="1000" />

<glyph glyph-name="bomba" unicode="&#xe861;" d="M789 363c-26 56-67 103-120 137-8 5-16 9-16 22 0 34-14 48-50 50-6 0-14 0-20 0-39 0-80 0-119 0-37 0-75 0-114-2-31-1-47-17-47-48 0-11-3-16-12-22-103-69-155-166-157-291 0-29 4-57 11-86 52-206 269-284 405-251 219 56 336 289 239 491z m-251-452c-165-34-321 66-360 234-30 125 16 252 131 327 19 12 30 25 29 48-2 14 3 18 17 18 40 0 83 0 123 0 41 0 80 0 120 0 18 0 19-2 19-19 0-22 11-36 30-47 39-25 72-58 97-99 106-181 15-415-206-462z m-75 817c26-5 54-1 75 17 10 10 21 13 35 13 35 0 68 0 102 0 23 0 41 11 47 30 9 32-9 59-45 60-21 2-39 2-57 2 0 0 0 0 0 0-17 0-34 0-50 0-56-2-97-30-123-78-11-20-5-39 16-44z m100 85c37 1 73 0 110 0 7 0 13 0 13-10 0-9-6-9-13-9-34 0-68 0-103 0-22 0-40-5-56-22-8-8-19-9-31-9 20 32 45 48 80 50z m-175-222c28 0 56 0 84 0 30 0 59 0 89 0 27 0 41 11 42 36 2 14 2 26-1 40-5 25-18 38-43 39-21 2-42 0-64 2-32 0-67 1-100-2-26-1-42-18-43-45 0-13 0-23 0-36 1-23 12-34 36-34z m32 81c43 0 86 0 128 0 19 0 21-2 21-19 0-31 3-25-25-26-22 0-44 0-66 0 0 0 0 0 0 0-26 0-51 0-78 0-9 0-12 3-12 12 0 31 1 33 32 33z" horiz-adv-x="1000" />

<glyph glyph-name="baterias" unicode="&#xe862;" d="M960 397c16 0 28 13 28 29v114c0 16-12 28-28 28h-29v29c0 47-38 85-85 85s-86-38-86-85v-29h-57v86c0 16-13 28-28 28h-346c-16 0-29-12-29-28v-86h-57v29c0 47-38 85-85 85s-86-38-86-85v-29h-28c-16 0-28-12-28-28v-114c0-16 12-29 28-29h29v-361h-29c-16 0-28-12-28-28v-114c0-16 12-29 28-29h916c16 0 28 13 28 29v114c0 16-12 28-28 28h-29v361h29z m-143 200c0 16 13 28 29 28s28-12 28-28v-29h-57v29z m-459 28h288v-57h-288v57z m-228-28c0 16 12 28 28 28s29-12 29-28v-29h-57v29z m-57-86h858v-57h-858v57z m858-589h-858v57h858v-57z m-57 114h-744v361h744v-361z m-467 183c5-11 15-17 27-17h68l-60-60c-11-11-11-29 0-40 6-6 13-9 20-9s15 3 20 9l108 108c9 8 11 20 7 31-5 11-15 18-27 18h-68l33 33c12 11 12 29 0 40-11 11-29 11-40 0l-81-82c-9-8-11-20-7-31z" horiz-adv-x="1000" />

<glyph glyph-name="bomba-agua" unicode="&#xe863;" d="M789 363c-26 56-67 103-120 137-8 5-16 9-16 22 0 34-14 48-50 50-6 0-14 0-20 0-39 0-80 0-119 0-37 0-75 0-114-2-31-1-47-17-47-48 0-11-3-16-12-22-103-69-155-166-157-291 0-29 4-57 11-86 52-206 269-284 405-251 219 56 336 289 239 491z m-478 109c19 12 30 25 28 48-1 14 3 18 17 18 41 0 83 0 124 0 40 0 79 0 120 0 17 0 19-2 19-19 0-22 11-36 29-47 40-25 72-58 97-99 28-46 43-96 44-148-23 5-34 23-50 39-33 36-83 38-114-1-36-46-52-46-87 0-32 39-82 37-116 0-8-8-14-18-22-25-14-15-28-15-42 0-10 9-16 18-25 28-33 34-78 34-111 0-8-8-14-18-22-25-5-5-9-11-17-13-6 0-11-1-14-5 3 99 50 190 142 249z m227-561c-165-34-321 66-360 234-3 13-5 27-6 39 14-4 30-3 45 8 8 6 17 13 22 21 30 42 47 40 78 0 35-44 88-44 121 0 31 40 48 42 81 0 33-43 86-44 119-2 32 44 50 44 81 0 14-20 36-31 62-30 2 0 2 0 3 0-11-125-100-239-246-270z m-75 817c26-5 54-1 75 17 10 10 21 13 35 13 35 0 68 0 102 0 23 0 41 11 47 30 9 32-9 59-45 60-21 2-39 2-57 2 0 0 0 0 0 0-17 0-34 0-50 0-56-2-97-30-123-78-11-20-5-39 16-44z m100 85c37 1 73 0 110 0 7 0 13 0 13-10 0-9-6-9-13-9-34 0-68 0-103 0-22 0-40-5-56-22-8-8-19-9-31-9 20 32 45 48 80 50z m-175-222c28 0 56 0 84 0 30 0 59 0 89 0 27 0 41 11 42 36 2 14 2 26-1 40-5 25-18 38-43 39-21 2-42 0-64 2-32 0-67 1-100-2-26-1-42-18-43-45 0-13 0-23 0-36 1-23 12-34 36-34z m32 81c43 0 86 0 128 0 19 0 21-2 21-19 0-31 3-25-25-26-22 0-44 0-66 0 0 0 0 0 0 0-26 0-51 0-78 0-9 0-12 3-12 12 0 31 1 33 32 33z" horiz-adv-x="1000" />

</font>
</defs>
</svg>
